<?xml version="1.0" standalone="no"?>
<!DOCTYPE svg PUBLIC "-//W3C//DTD SVG 1.1//EN" "http://www.w3.org/Graphics/SVG/1.1/DTD/svg11.dtd" >
<svg xmlns="http://www.w3.org/2000/svg">
<metadata>
This is a custom SVG webfont generated by Font Squirrel.
Designer    : MicroPress Inc., with final additions and corrections provided by Coen Hoffman, Elsevier (retired)
Foundry URL : http://www.stixfonts.org
</metadata>
<defs>
<font id="webfontwFpnxWyx" horiz-adv-x="750" >
<font-face units-per-em="1000" ascent="750" descent="-250" />
<missing-glyph horiz-adv-x="250" />
<glyph unicode="IJ" horiz-adv-x="838" d="M370 0h-350v25q57 5 75 20t18 61v470q0 41 -19 56t-74 19v25h350v-25q-56 -2 -75.5 -17.5t-19.5 -57.5v-470q0 -48 18.5 -62.5t76.5 -18.5v-25zM917 676v-25q-55 -4 -71.5 -22t-16.5 -73v-430q0 -222 -212 -222q-74 0 -108 23q-29 20 -48 50t-19 60q0 28 22 51t49 23 q28 0 50 -23t22 -53q0 -15 -13.5 -34t-13.5 -32q0 -32 45 -32q34 0 49 21.5t15 68.5v550q0 43 -20 57.5t-81 16.5v25h351z" />
<glyph unicode="ij" horiz-adv-x="552" d="M528 461v-459q0 -84 -27 -129q-43 -76 -150 -76q-62 0 -101 28t-39 72q0 27 17 44t45 17q25 0 42 -15.5t17 -38.5q0 -16 -14 -37q-9 -15 -9 -22q0 -17 32 -17q25 0 36.5 18t11.5 58v474q0 32 -12.5 44t-50.5 15v24h202zM531 613q0 -33 -22.5 -55t-56.5 -22 q-33 0 -54.5 22t-21.5 55t22.5 55.5t55.5 22.5q31 0 54 -23t23 -55zM256 0h-240v24q35 8 44 19t9 45v285q0 33 -10.5 45t-43.5 19v24h193v-376q0 -32 10.5 -44.5t37.5 -16.5v-24zM215 613q0 -33 -22.5 -55t-55.5 -22t-55 22t-22 55t22.5 55.5t56.5 22.5q31 0 53.5 -23 t22.5 -55z" />
<glyph unicode="&#xfb00;" horiz-adv-x="610" d="M15 461h56q0 77 15 118.5t55 73.5q47 38 130 38q71 0 142 -28q40 28 110 28q64 0 103.5 -28t39.5 -72q0 -28 -17 -46t-45 -18q-25 0 -42.5 17t-17.5 40q0 20 11 36.5t11 20.5q0 19 -29 19q-27 0 -38.5 -17.5t-11.5 -61.5v-120h86v-44h-86v-328q0 -34 11 -46t48 -19v-24 h-244v24q32 4 39 15t7 48v330h-138v-333q0 -30 9.5 -43t36.5 -17v-24h-241v24q34 4 45 18t11 48v327h-56v44zM348 461v98q-9 3 -16.5 14t-7.5 23q0 14 8 23.5t8 18.5t-11.5 15.5t-29.5 6.5q-89 0 -89 -143v-56h138z" />
<glyph unicode="&#xfb01;" horiz-adv-x="556" d="M536 0h-234v24q27 3 36.5 15.5t9.5 44.5v297q0 20 -8 28t-29 8h-101v-333q0 -31 9.5 -43.5t36.5 -16.5v-24h-242v24q35 4 46 17.5t11 47.5v328h-56v44h56q5 79 20 120t57 72q51 38 146 38q83 0 130.5 -24.5t47.5 -67.5q0 -27 -18.5 -44.5t-46.5 -17.5t-46 15.5t-18 39.5 q0 16 7 35l2 7q0 11 -16 19t-38 8q-46 0 -67 -33.5t-21 -126.5v-40h104q96 0 173 13v-388q0 -33 11 -46.5t38 -15.5v-24z" />
<glyph unicode="&#xfb02;" horiz-adv-x="556" d="M535 0h-233v24l8 1q38 4 38 58v334h-138v-333q0 -30 9.5 -43t36.5 -17v-24h-241v24q34 4 45 18t11 48v327h-56v44h56q0 77 15 118.5t55 73.5q47 38 130 38q73 0 151 -31l46 30h19v-607q0 -55 36 -58l12 -1v-24zM348 461v98q-9 3 -16.5 14t-7.5 23q0 14 8 23.5t8 18.5 q0 20 -41 20q-89 0 -89 -141v-56h138z" />
<glyph unicode="&#xfb03;" horiz-adv-x="833" d="M813 0h-234v24q27 3 36.5 15.5t9.5 44.5v297q0 20 -8 28t-29 8h-101v-333q0 -31 9.5 -43.5t36.5 -16.5v-24h-231v24q30 4 38 16.5t8 48.5v328h-138v-333q0 -30 9.5 -43t36.5 -17v-24h-241v24q34 4 45 18t11 48v327h-56v44h56q0 77 15 118.5t55 73.5q47 38 130 38 q101 0 161 -33q50 33 139 33q83 0 130.5 -24.5t47.5 -67.5q0 -27 -18.5 -44.5t-46.5 -17.5t-46 15.5t-18 39.5q0 16 7 35l2 7q0 11 -15.5 19t-38.5 8q-46 0 -67 -33.5t-21 -126.5v-40h104q96 0 173 13v-388q0 -33 11 -46.5t38 -15.5v-24zM348 461v98q-9 3 -16.5 14t-7.5 23 q0 14 8 23.5t8 18.5t-11.5 16t-29.5 7q-89 0 -89 -144v-56h138z" />
<glyph unicode="&#xfb04;" horiz-adv-x="833" d="M812 0h-233v24l8 1q38 4 38 58v334h-138v-333q0 -30 9.5 -43t36.5 -17v-24h-231v24q28 6 37 19.5t9 46.5v327h-138v-333q0 -30 9.5 -43t36.5 -17v-24h-241v24q34 4 45 18t11 48v327h-56v44h56q0 77 15 118.5t55 73.5q47 38 130 38q89 0 147 -36q50 36 130 36 q74 0 151 -31l46 30h19v-607q0 -55 36 -58l12 -1v-24zM625 461v98q-9 3 -16.5 14t-7.5 23q0 14 8 23.5t8 18.5t-11.5 15.5t-29.5 6.5q-89 0 -89 -143v-56h138zM348 461v98q-9 3 -16.5 14t-7.5 23q0 14 8 23.5t8 18.5t-11.5 15.5t-29.5 6.5q-89 0 -89 -143v-56h138z" />
<glyph unicode="fj" horiz-adv-x="556" d="M487 474v-472q0 -84 -27 -129q-43 -76 -150 -76q-62 0 -101 28t-39 72q0 27 17 44t45 17q25 0 42 -15.5t17 -38.5q0 -16 -14 -37q-9 -15 -9 -22q0 -17 32 -17q25 0 36.5 18t11.5 58v477q0 20 -8 28t-29 8h-101v-333q0 -31 9.5 -43.5t36.5 -16.5v-24h-242v24q35 4 46 17.5 t11 47.5v328h-56v44h56q5 79 20 120t57 72q51 38 146 38q83 0 130.5 -24.5t47.5 -67.5q0 -27 -18.5 -44.5t-46.5 -17.5t-46 15.5t-18 39.5q0 16 7 35l2 7q0 11 -16 19t-38 8q-46 0 -67 -33.5t-21 -126.5v-40h104q96 0 173 13z" />
<glyph unicode=" "  horiz-adv-x="250" />
<glyph unicode="&#x09;" horiz-adv-x="250" />
<glyph unicode="&#xa0;" horiz-adv-x="250" />
<glyph unicode="!" horiz-adv-x="333" d="M181 234h-31q-10 93 -19.5 144t-31.5 122q-18 58 -18 91q0 47 22 73.5t62 26.5q38 0 61.5 -27t23.5 -75q0 -32 -18 -89q-22 -72 -31.5 -123t-19.5 -143zM251 71q0 -35 -25 -59.5t-60 -24.5q-36 0 -60 23.5t-24 59.5q0 37 24.5 61.5t60.5 24.5q37 0 60.5 -24t23.5 -61z " />
<glyph unicode="&#x22;" horiz-adv-x="555" d="M429 404h-43q-43 178 -43 214q0 73 64 73q31 0 48 -19.5t17 -49.5q0 -31 -43 -218zM169 404h-43q-43 171 -43 214q0 33 16 53t48 20t48.5 -19t16.5 -50q0 -32 -43 -218z" />
<glyph unicode="#" horiz-adv-x="500" d="M495 417h-97l-18 -134h86v-73h-97l-29 -210h-78l29 210h-113l-29 -210h-78l29 210h-95v73h106l18 134h-95v73h105l30 210h77l-29 -210h113l30 210h77l-29 -210h87v-73zM320 417h-113l-18 -134h113z" />
<glyph unicode="$" horiz-adv-x="500" d="M269 641v-214q11 -7 40 -24l39 -23q11 -6 33.5 -21.5t31.5 -24.5l23 -26q15 -17 20.5 -32.5t10.5 -36t5 -43.5q0 -87 -51 -135q-45 -41 -152 -61v-99h-56v99q-46 2 -75.5 9.5t-91.5 33.5v158l21 -2q21 -81 55.5 -119.5t90.5 -49.5v250q-100 52 -142 101t-42 115 q0 103 88 151q33 18 96 25v78h56v-76q94 -13 159 -52v-141h-21q-19 77 -51.5 114t-86.5 46zM213 454v190q-89 -23 -89 -93q0 -39 20.5 -59.5t68.5 -37.5zM269 249v-219q46 9 69.5 38t23.5 66q0 40 -16.5 60.5t-76.5 54.5z" />
<glyph unicode="%" horiz-adv-x="749" d="M688 214q0 -53 -19.5 -104t-53.5 -86q-39 -42 -99 -42q-57 0 -92.5 38.5t-35.5 99.5q0 85 58.5 149t136.5 64q49 0 77 -31.5t28 -87.5zM663 220q0 35 -17 57.5t-42 22.5q-31 0 -62 -46q-24 -36 -40 -87t-16 -91q0 -66 50 -66q44 0 79 51q48 74 48 159zM626 706l-438 -735 h-48l388 655q-56 -42 -113 -42q-27 0 -60 13q3 -29 3 -42q0 -53 -19.5 -105.5t-50.5 -83.5q-44 -44 -101 -44q-56 0 -91 39t-35 100q0 85 59 149t138 64q35 0 71 -29q38 -30 83 -30q49 0 88.5 21.5t77.5 69.5h48zM332 560q0 25 -6 35.5t-26 18.5q-11 5 -21 11q-14 9 -20 9 q-32 0 -67 -74.5t-35 -141.5q0 -66 50 -66q48 0 86.5 64t38.5 144z" />
<glyph unicode="&#x26;" horiz-adv-x="833" d="M789 113l-15 -25q-33 -55 -57 -73q-41 -31 -93 -31q-40 0 -72.5 19t-76.5 69q-115 -87 -222 -87q-86 0 -138.5 48t-52.5 134q0 69 45.5 123t150.5 98q-32 50 -42 79.5t-10 64.5q0 76 53 117.5t149 41.5q72 0 116 -33.5t44 -87.5q0 -48 -36 -83t-116 -64l151 -214 q45 54 60.5 84t15.5 61q0 22 -10.5 29t-53.5 12v24h204v-24q-33 -3 -47 -10.5t-26 -29.5q-34 -62 -55 -93t-65 -86q42 -54 66 -72.5t53 -18.5q35 0 60 40zM467 533q0 50 -27.5 87.5t-64.5 37.5q-24 0 -38 -15t-14 -41q0 -64 74 -150q38 13 54 31.5t16 49.5zM452 100 q-5 8 -30 42l-44 60l-48 71q-30 44 -55 85q-41 -24 -57.5 -45t-16.5 -49q0 -87 72 -161q39 -42 89 -42q36 0 90 39z" />
<glyph unicode="'" horiz-adv-x="278" d="M161 404h-43q-43 205 -43 213q0 34 16.5 54t47.5 20t48 -18.5t17 -51.5q0 -30 -43 -217z" />
<glyph unicode="(" horiz-adv-x="333" d="M306 -140v-28q-74 44 -113 79.5t-78 91.5q-69 99 -69 256q0 198 131 340q29 31 56 50.5t73 44.5v-27q-97 -80 -122 -156.5t-25 -252.5q0 -162 28 -241t119 -157z" />
<glyph unicode=")" horiz-adv-x="333" d="M27 666v28q75 -45 115.5 -83t75.5 -95q69 -115 69 -249q0 -198 -131 -340q-29 -31 -56 -50.5t-73 -44.5v27q35 27 59 50.5t41 52.5t26 54t14 67.5t6 80.5t1 104q0 173 -25.5 247t-121.5 151z" />
<glyph unicode="*" horiz-adv-x="500" d="M260 497l7 -3q30 24 42 35.5t30 38.5q14 22 26.5 30t29.5 8q21 0 37 -14.5t16 -33.5q0 -23 -25.5 -38t-56.5 -15q-33 0 -48.5 -4.5t-40.5 -21.5v-8q51 -24 97 -28q40 -3 56.5 -14.5t16.5 -36.5q0 -22 -13 -36t-36 -14q-19 0 -32.5 11.5t-42.5 50.5q-15 21 -25.5 30 t-31.5 20l-6 -4q1 -32 6 -49t21 -49q15 -29 15 -45q0 -22 -14.5 -37t-36.5 -15q-21 0 -35 14.5t-14 37.5q0 17 16 46q14 24 18 42t5 55l-6 4q-29 -22 -41.5 -34.5t-32.5 -40.5q-15 -22 -26.5 -29.5t-28.5 -7.5q-21 0 -35.5 13.5t-14.5 34.5q0 47 84 53q32 2 47 7.5t39 21.5 v7q-47 21 -102 26q-68 5 -68 53q0 22 13 35t34 13t34 -9t28 -34q17 -29 29.5 -41t41.5 -28l5 3q-1 33 -4.5 48t-18.5 43q-18 32 -18 53q0 22 14.5 36t37.5 14q21 0 34.5 -15t13.5 -40q0 -15 -18 -47q-22 -37 -22 -77v-15z" />
<glyph unicode="+" d="M685 209h-266v-266h-88v266h-266v88h266v266h88v-266h266v-88z" />
<glyph unicode="," horiz-adv-x="250" d="M57 -180l-11 22q109 76 109 133q0 21 -19 21q-3 0 -11 -1t-13 -1q-32 0 -52.5 21t-20.5 55q0 39 23 62t61 23q47 0 73.5 -31t26.5 -85q0 -132 -166 -219z" />
<glyph unicode="-" horiz-adv-x="333" d="M287 171h-243v116h243v-116z" />
<glyph unicode="." horiz-adv-x="250" d="M210 71q0 -35 -25 -59.5t-60 -24.5q-36 0 -60 24t-24 60q0 35 25 60t60 25q34 0 59 -25t25 -60z" />
<glyph unicode="/" horiz-adv-x="278" d="M302 691l-236 -710h-90l236 710h90z" />
<glyph unicode="0" horiz-adv-x="500" d="M476 337q0 -157 -63 -253.5t-162 -96.5t-163 96t-64 251q0 51 7 99.5t24.5 95.5t43 81.5t65.5 56t89 21.5q75 0 127.5 -54.5t74 -131t21.5 -165.5zM318 224v225q0 111 -16 161t-53 50t-52 -48.5t-15 -162.5v-225q0 -112 16 -160.5t53 -48.5t52 48t15 161z" />
<glyph unicode="1" horiz-adv-x="500" d="M441 0h-373v24q74 1 96 20.5t22 84.5v378q0 70 -36 70q-24 0 -65 -16l-20 -8v26l251 109h18v-570q0 -57 19.5 -75t87.5 -19v-24z" />
<glyph unicode="2" horiz-adv-x="500" d="M478 211l-46 -211h-415v23q109 116 151.5 166.5t80.5 109.5q51 78 51 148q0 54 -31 90.5t-88 36.5q-77 0 -122 -90h-28q68 204 223 204q82 0 132 -49.5t50 -133.5q0 -110 -114 -218l-162 -154h140q81 0 107.5 13t45.5 65h25z" />
<glyph unicode="3" horiz-adv-x="500" d="M58 524l-21 12q79 152 229 152q74 0 119 -40.5t45 -96.5q0 -38 -20.5 -73t-63.5 -54q57 -20 89.5 -68.5t32.5 -109.5q0 -110 -85.5 -185t-214.5 -75q-69 0 -110.5 24.5t-41.5 65.5q0 26 18.5 43t46.5 17q45 0 96 -57q39 -43 79 -43q45 0 71.5 34t26.5 88q0 75 -49 121 q-26 24 -56 39t-97 38v17q70 22 100.5 54t30.5 77q0 103 -99 103q-40 0 -69 -18.5t-57 -64.5z" />
<glyph unicode="4" horiz-adv-x="500" d="M476 144h-64v-144h-145v144h-248v113l313 431h80v-433h64v-111zM268 255v294l-208 -294h208z" />
<glyph unicode="5" horiz-adv-x="500" d="M470 676l-45 -127h-276l-22 -81q104 -6 151 -20q82 -23 127.5 -79.5t45.5 -134.5q0 -109 -78.5 -175.5t-203.5 -66.5q-65 0 -106 26t-41 62q0 26 17.5 43.5t43.5 17.5q46 0 100 -46q49 -42 90 -42q42 0 71 29.5t29 74.5q0 51 -36.5 90.5t-105.5 61.5q-49 15 -180 22 l97 345h322z" />
<glyph unicode="6" horiz-adv-x="500" d="M470 688v-26q-109 -22 -173 -85t-93 -173q39 17 84 17q85 0 136 -54t51 -145q0 -105 -59 -170t-156 -65q-106 0 -169 77.5t-63 209.5q0 175 139 297q61 53 118.5 73.5t184.5 43.5zM323 165q0 117 -20 164t-69 47q-25 0 -37 -10q-13 -11 -13 -121q0 -150 27 -202 q15 -29 51 -29q35 0 48 31t13 120z" />
<glyph unicode="7" horiz-adv-x="500" d="M477 676l-235 -676h-95l200 539h-199q-47 0 -68.5 -18t-36.5 -67h-26l45 222h415z" />
<glyph unicode="8" horiz-adv-x="500" d="M472 187q0 -91 -62 -145.5t-170 -54.5q-96 0 -154 45.5t-58 124.5q0 132 149 168q-74 44 -106 87.5t-32 100.5q0 80 60.5 127.5t163.5 47.5q91 0 143 -41.5t52 -103.5q0 -98 -136 -140q84 -57 117 -105t33 -111zM339 537q0 53 -23.5 87.5t-64.5 34.5q-35 0 -59 -24 t-24 -59q0 -87 130 -154q25 33 33 56t8 59zM333 127q0 55 -25.5 89.5t-107.5 89.5q-51 -75 -51 -145q0 -68 24 -105t69 -37q42 0 66.5 28t24.5 80z" />
<glyph unicode="9" horiz-adv-x="500" d="M31 -13v26q107 22 171.5 85t96.5 175q-37 -19 -88 -19q-83 0 -134 55.5t-51 149.5q0 97 61 163t154 66q105 0 168.5 -80t63.5 -214q0 -183 -145 -297q-67 -53 -126.5 -75t-170.5 -35zM317 461q0 117 -25 167q-17 33 -54 33q-34 0 -47 -30.5t-13 -117.5q0 -116 19.5 -165 t65.5 -49q28 0 41 9q4 2 5 20q8 31 8 86v47z" />
<glyph unicode=":" horiz-adv-x="333" d="M251 387q0 -35 -25 -59.5t-60 -24.5t-59.5 24.5t-24.5 60.5q0 35 24.5 59.5t60.5 24.5q35 0 59.5 -25t24.5 -60zM251 71q0 -35 -25 -59.5t-60 -24.5q-36 0 -60 24t-24 60q0 35 25 60t60 25q34 0 59 -25t25 -60z" />
<glyph unicode=";" horiz-adv-x="333" d="M251 387q0 -35 -25 -59.5t-60 -24.5t-59.5 24.5t-24.5 60.5q0 35 24.5 59.5t60.5 24.5q35 0 59.5 -25t24.5 -60zM100 -180l-11 22q109 76 109 133q0 21 -19 21q-3 0 -11 -1t-13 -1q-32 0 -52.5 21t-20.5 55q0 39 23 62t61 23q47 0 73.5 -31t26.5 -85q0 -132 -166 -219z " />
<glyph unicode="&#x3c;" d="M670 -24l-590 258v40l590 260v-88l-436 -192l436 -190v-88z" />
<glyph unicode="=" d="M682 311h-614v88h614v-88zM682 107h-614v88h614v-88z" />
<glyph unicode="&#x3e;" d="M670 234l-590 -258v88l436 190l-436 192v88l590 -260v-40z" />
<glyph unicode="?" horiz-adv-x="500" d="M253 232h-30q-3 25 -3 45q1 46 38.5 123.5t37.5 122.5q0 62 -22 96t-62 34q-28 0 -44.5 -11t-16.5 -29q0 -13 15 -29q22 -25 22 -51q0 -28 -20.5 -47.5t-44.5 -19.5q-29 0 -47.5 22.5t-18.5 55.5q0 63 51 104t133 41q93 0 148.5 -46.5t55.5 -119.5q0 -52 -26 -87.5 t-95 -78.5q-47 -29 -59 -49.5t-12 -75.5zM323 71q0 -35 -24.5 -59.5t-59.5 -24.5q-36 0 -60.5 24.5t-24.5 59.5t25 60t61 25q34 0 58.5 -25t24.5 -60z" />
<glyph unicode="@" horiz-adv-x="930" d="M698 76l13 -35q-73 -35 -120.5 -47.5t-103.5 -12.5q-160 0 -269.5 100t-109.5 249q0 150 111.5 255.5t269.5 105.5q144 0 238.5 -86.5t94.5 -214.5q0 -104 -58 -175t-136 -71q-37 0 -60.5 20t-28.5 54q-56 -74 -126 -74q-43 0 -68.5 32.5t-25.5 81.5q0 98 55 179.5 t148 81.5q27 0 42 -10.5t31 -42.5l11 40h71l-66 -260q-2 -10 -2 -18q0 -48 35 -48q50 0 90.5 63t40.5 142q0 109 -85.5 188t-202.5 79q-125 0 -206 -92.5t-81 -234.5q0 -131 82 -214.5t213 -83.5q96 0 203 49zM577 411q0 60 -45 60q-56 0 -96 -63.5t-40 -129.5 q0 -40 16 -63.5t43 -23.5q48 0 83 68q39 78 39 152z" />
<glyph unicode="A" horiz-adv-x="722" d="M689 0h-322v25l32 3q25 2 35.5 9.5t10.5 23.5q0 29 -46 136h-225l-13 -34q-31 -80 -31 -97q0 -19 18.5 -28.5t62.5 -12.5v-25h-202v25q35 6 53 28t46 92l221 545h28l222 -522q38 -90 58.5 -116.5t51.5 -26.5v-25zM384 236l-101 243l-94 -243h195z" />
<glyph unicode="B" horiz-adv-x="667" d="M426 365v-1q85 -11 139 -58.5t54 -117.5q0 -83 -72 -135.5t-202 -52.5h-329v25q55 6 71.5 21t16.5 57v467q0 44 -18.5 60.5t-69.5 20.5v25h317q121 0 186.5 -41.5t65.5 -118.5q0 -59 -37 -96.5t-122 -54.5zM264 592v-219q91 0 123.5 30t32.5 106q0 137 -99 137 q-30 0 -43.5 -12.5t-13.5 -41.5zM264 343v-245q0 -36 15 -51t48 -15q58 0 89 40t31 116q0 155 -157 155h-26z" />
<glyph unicode="C" horiz-adv-x="722" d="M657 152l30 -25q-67 -83 -132.5 -114.5t-155.5 -31.5q-159 0 -254.5 96.5t-95.5 245.5q0 160 97.5 264t249.5 104q71 0 156 -35q32 -14 46 -14t23.5 9.5t20.5 36.5h27v-235h-25q-22 62 -67 115q-75 90 -167 90q-81 0 -132.5 -83.5t-51.5 -229.5q0 -155 54 -240 q22 -34 62.5 -55t84.5 -21q64 0 126 34q41 23 104 89z" />
<glyph unicode="D" horiz-adv-x="722" d="M14 676h312q171 0 267.5 -88t96.5 -243q0 -77 -30.5 -147t-84.5 -117q-93 -81 -252 -81h-309v25q43 1 63 19t20 54v486q0 34 -17.5 48t-65.5 19v25zM259 598v-498q0 -35 12.5 -50t45.5 -15q98 0 149 72q23 33 36.5 94.5t13.5 128.5q0 139 -41 211q-58 101 -163 101 q-53 0 -53 -44z" />
<glyph unicode="E" horiz-adv-x="667" d="M641 208l-40 -208h-585v25q54 6 71 21t17 55v479q0 38 -18 53t-70 18v25h577v-201h-25q-17 100 -65.5 133.5t-171.5 33.5q-38 0 -51.5 -12t-13.5 -42v-225q81 1 117 32.5t45 116.5h26v-338h-26q-7 88 -43 121.5t-119 33.5v-242q0 -32 17.5 -44t65.5 -12q117 0 182 54 q25 20 42 46t40 77h28z" />
<glyph unicode="F" horiz-adv-x="611" d="M583 474h-24q-10 57 -22 81.5t-38 47.5q-45 39 -163 39q-38 0 -54 -11.5t-16 -39.5v-228q75 0 109 32.5t44 116.5h25v-338h-25q-7 87 -41 120t-112 35v-228q0 -43 21 -58t89 -18v-25h-360v25q55 6 71.5 21t16.5 57v472q0 43 -18 58t-70 18v25h567v-202z" />
<glyph unicode="G" horiz-adv-x="778" d="M755 287v-25q-53 -6 -69.5 -27.5t-16.5 -72.5v-118q-49 -29 -124 -46t-153 -17q-154 0 -254.5 96t-100.5 254q0 151 99.5 255.5t248.5 104.5q70 0 155 -35q32 -14 46 -14t23.5 9.5t20.5 36.5h27v-235h-25q-29 63 -47.5 92.5t-48.5 56.5q-63 56 -138 56q-88 0 -136 -83 t-48 -237q0 -157 48 -237q27 -45 63 -66t92 -21q96 0 96 85v89q0 40 -19.5 55t-82.5 19v25h344z" />
<glyph unicode="H" horiz-adv-x="778" d="M759 0h-339v25q54 6 71.5 20.5t17.5 52.5v228h-241v-228q0 -40 17 -53.5t72 -19.5v-25h-336v25q53 7 69 20.5t16 52.5v479q0 41 -17 55t-68 19v25h336v-25q-53 -4 -71 -18.5t-18 -55.5v-204h241v204q0 41 -18 55.5t-71 18.5v25h339v-25q-51 -4 -69.5 -19t-18.5 -55v-479 q0 -39 16.5 -52.5t71.5 -20.5v-25z" />
<glyph unicode="I" horiz-adv-x="389" d="M370 0h-350v25q57 5 75 20t18 61v470q0 41 -19 56t-74 19v25h350v-25q-56 -2 -75.5 -17.5t-19.5 -57.5v-470q0 -48 18.5 -62.5t76.5 -18.5v-25z" />
<glyph unicode="J" horiz-adv-x="500" d="M478 676v-25q-55 -4 -71.5 -22t-16.5 -73v-430q0 -222 -212 -222q-74 0 -108 23q-29 20 -48 50t-19 60q0 28 21.5 51t49.5 23t50 -23t22 -53q0 -15 -13.5 -34t-13.5 -32q0 -32 45 -32q34 0 49 21.5t15 68.5v550q0 43 -20 57.5t-81 16.5v25h351z" />
<glyph unicode="K" horiz-adv-x="778" d="M769 0h-334v25q47 1 62 6t15 15q0 13 -25 45l-181 225l-27 -25v-196q0 -37 16.5 -50t70.5 -20v-25h-336v25q55 5 71 19t16 57v472q0 46 -17 60.5t-70 17.5v25h337v-25q-54 -4 -71 -20.5t-17 -63.5v-223l212 215q24 24 32 35t8 23q0 15 -10.5 22t-37.5 9l-35 3v25h289v-25 q-78 -9 -133 -46.5t-189 -180.5l305 -378q16 -20 49 -21v-25z" />
<glyph unicode="L" horiz-adv-x="667" d="M638 227l-42 -227h-577v25q55 7 70.5 20t15.5 53v478q0 42 -17.5 57t-68.5 18v25l348 1v-25q-65 -3 -82.5 -20t-17.5 -79v-464q0 -33 18.5 -45.5t66.5 -12.5q109 0 170 55q42 39 87 141h29z" />
<glyph unicode="M" horiz-adv-x="944" d="M921 0h-332v25q55 5 72 22t17 62v496l-252 -605h-27l-252 594v-465q0 -58 20 -79t81 -25v-25h-234v25q59 6 75 20.5t16 62.5v469q0 41 -17 55.5t-72 18.5v25h253l199 -472l201 472h252v-25q-55 -4 -71.5 -22.5t-16.5 -74.5v-428q0 -57 15 -76.5t73 -24.5v-25z" />
<glyph unicode="N" horiz-adv-x="722" d="M701 676v-25q-50 -8 -64 -22.5t-14 -60.5v-586h-28l-447 545v-396q0 -58 18 -78.5t76 -27.5v-25h-226v25q55 7 71.5 22.5t16.5 61.5v470q-52 72 -85 72v25h211l349 -430v299q0 60 -18 80.5t-74 25.5v25h214z" />
<glyph unicode="O" horiz-adv-x="778" d="M743 335q0 -156 -99.5 -255t-255.5 -99q-155 0 -254 99t-99 254q0 159 101 258t258 99q151 0 250 -100.5t99 -255.5zM566 328q0 160 -46.5 245t-134.5 85q-83 0 -128 -85.5t-45 -242.5t46 -236.5t132 -79.5t131 80t45 234z" />
<glyph unicode="P" horiz-adv-x="611" d="M16 676h315q128 0 198.5 -45.5t70.5 -135.5q0 -60 -33.5 -104.5t-95.5 -67.5q-32 -12 -70.5 -15.5t-138.5 -4.5v-192q0 -51 14 -65t73 -21v-25h-333v25q33 3 45 9q23 9 31 30t8 62v427q0 58 -15.5 75.5t-68.5 22.5v25zM262 606v-268q94 1 130 32t36 114q0 84 -27 120.5 t-89 36.5q-50 0 -50 -35z" />
<glyph unicode="Q" horiz-adv-x="778" d="M730 -117l6 -24q-91 -35 -179 -35q-140 0 -228 88q-29 29 -56 86q-113 34 -175.5 123.5t-62.5 208.5q0 161 99.5 261t254.5 100q156 0 255 -100t99 -264q0 -126 -66 -211t-187 -122q23 -47 47 -71q52 -52 123 -52q30 0 70 12zM566 335q0 158 -46 240.5t-132 82.5 q-84 0 -130 -83.5t-46 -239.5t45 -238.5t132 -82.5q86 0 131.5 83t45.5 238z" />
<glyph unicode="R" horiz-adv-x="722" d="M716 0h-205l-207 313h-28v-196q0 -54 14.5 -69t73.5 -23v-25h-338v25q59 7 73.5 22t14.5 73v431q0 59 -16.5 77.5t-71.5 22.5v25h308q296 0 296 -172q0 -76 -45 -118q-42 -38 -112 -57l199 -282q15 -22 44 -22v-25zM276 597v-252q103 1 143 31t40 118q0 79 -30 113.5 t-100 34.5q-29 0 -41 -10t-12 -35z" />
<glyph unicode="S" horiz-adv-x="556" d="M484 474h-28q-26 85 -70 130q-54 56 -123 56q-51 0 -80.5 -27.5t-29.5 -71.5q0 -36 21 -59t82 -55q18 -10 68.5 -35.5t79.5 -41.5q49 -27 79 -73.5t30 -102.5q0 -95 -68.5 -154t-179.5 -59q-61 0 -130 24q-31 10 -41 10q-12 0 -19 -7.5t-11 -26.5h-29v248h29 q23 -96 60 -143q57 -72 144 -72q58 0 92 30.5t34 82.5q0 48 -57 88q-25 18 -122 65q-89 43 -130 90t-41 120q0 95 58.5 148t160.5 53q55 0 117 -23q30 -10 42 -10q14 0 20.5 7t11.5 27h30v-218z" />
<glyph unicode="T" horiz-adv-x="667" d="M636 475h-29q-13 89 -56.5 127.5t-135.5 41.5v-527q0 -57 16.5 -72t81.5 -20v-25h-357v25q64 5 80.5 20.5t16.5 71.5v527q-93 -3 -136.5 -41.5t-56.5 -127.5h-29l3 201h600z" />
<glyph unicode="U" horiz-adv-x="722" d="M701 676v-25q-48 -7 -63 -24t-15 -61v-314q0 -156 -76 -216q-68 -55 -184 -55t-185 54q-43 34 -61.5 79t-18.5 117v324q0 59 -14 75t-68 21v25h336v-25q-60 -5 -77.5 -23t-17.5 -78v-318q0 -202 146 -202q176 0 176 222v300q0 54 -20.5 74t-76.5 25v25h219z" />
<glyph unicode="V" horiz-adv-x="722" d="M701 676v-25q-39 -5 -55.5 -20t-34.5 -62l-228 -587h-27l-256 599q-18 42 -32 53.5t-52 16.5v25h336v-25l-33 -2q-53 -3 -53 -36q0 -17 23 -72l138 -334l127 329q20 52 20 71q0 24 -16 32t-70 12v25h213z" />
<glyph unicode="W" horiz-adv-x="1000" d="M981 676v-25q-50 -5 -69 -64l-200 -602h-27l-171 477l-186 -477h-28l-212 602q-13 37 -25 48t-44 16v25h294v-25q-39 -3 -51.5 -11.5t-12.5 -30.5q0 -13 7 -33l120 -364l118 308l-35 96q-12 32 -72 35v25h312v-25l-13 -1q-33 -2 -46 -10t-13 -26q0 -13 14 -56l108 -336 l112 343q7 20 7 42q0 23 -14.5 32.5t-54.5 11.5v25h182z" />
<glyph unicode="X" horiz-adv-x="722" d="M699 0h-340v25l28 2q52 3 52 28q0 21 -21 54l-101 162l-38 -51q-56 -76 -75 -106.5t-19 -46.5q0 -19 17.5 -28t63.5 -14v-25h-250v25q37 4 59 16t45 40l175 221l-198 291q-23 34 -38 45t-42 13v25h346v-25l-31 -2q-27 -1 -37.5 -8t-10.5 -23q0 -14 15 -37l97 -150l56 77 q36 49 47 69.5t11 36.5q0 18 -11 25t-40 10l-21 2v25h250v-25q-57 -5 -90.5 -30.5t-97.5 -115.5l-80 -111l182 -283q35 -54 53 -69.5t44 -16.5v-25z" />
<glyph unicode="Y" horiz-adv-x="722" d="M699 676v-25q-49 -7 -68 -39l-191 -311v-178q0 -58 16.5 -75.5t75.5 -22.5v-25h-347v25q60 5 76.5 25t16.5 78v136l-180 328q-31 56 -83 59v25h335v-25l-27 -2q-32 -2 -43 -7.5t-11 -21.5q0 -13 24 -59l120 -232l109 178q41 68 41 102q0 22 -16.5 30t-67.5 12v25h220z " />
<glyph unicode="Z" horiz-adv-x="667" d="M634 242l-27 -242h-579v16l382 625l-83 -3q-62 -2 -96.5 -8.5t-63.5 -25t-46 -49.5t-34 -86h-28l22 207h523v-16l-379 -625h83q145 0 202 40q27 19 45 45t26.5 47t26.5 75h26z" />
<glyph unicode="[" horiz-adv-x="333" d="M301 -149h-234v827h234v-33h-63q-42 0 -54.5 -13t-12.5 -57v-638q0 -32 9.5 -42.5t40.5 -10.5h80v-33z" />
<glyph unicode="\" horiz-adv-x="278" d="M303 -19h-92l-236 710h93z" />
<glyph unicode="]" horiz-adv-x="333" d="M266 -149h-234v33h80q31 0 40.5 10t9.5 43v638q0 44 -12.5 57t-54.5 13h-63v33h234v-827z" />
<glyph unicode="^" horiz-adv-x="581" d="M509 311h-89l-129 272l-129 -272h-89l178 365h80z" />
<glyph unicode="_" horiz-adv-x="500" d="M500 -125h-500v50h500v-50z" />
<glyph unicode="`" horiz-adv-x="333" d="M246 528h-56l-142 88q-40 25 -40 52q0 19 13.5 32t33.5 13q29 0 54 -28z" />
<glyph unicode="a" horiz-adv-x="500" d="M473 64l15 -21q-53 -57 -112 -57q-37 0 -55.5 15.5t-26.5 53.5q-76 -69 -159 -69q-50 0 -80 26.5t-30 79.5q0 67 67 112q50 33 201 76v68q0 49 -18.5 71t-62.5 22q-28 0 -46.5 -10t-18.5 -27q0 -11 11 -23q19 -23 19 -42q0 -26 -19 -43t-49 -17q-31 0 -48 18t-17 50 q0 59 52.5 92.5t138.5 33.5q92 0 144 -35t52 -99v-261q0 -28 21 -28q7 0 11 4zM293 97v148q-122 -34 -122 -121q0 -32 14.5 -49.5t37.5 -17.5q42 0 70 40z" />
<glyph unicode="b" horiz-adv-x="556" d="M211 676v-259q53 56 122 56q83 0 135.5 -65t52.5 -169q0 -113 -63 -183t-163 -70q-70 0 -132 57l-79 -56h-12v607q0 30 -10 40.5t-45 17.5v24h194zM211 360v-263q0 -36 19 -57.5t50 -21.5q94 0 94 203q0 198 -93 198q-25 0 -41 -13.5t-29 -45.5z" />
<glyph unicode="c" horiz-adv-x="444" d="M412 109l18 -18q-41 -56 -86 -80.5t-105 -24.5q-95 0 -154.5 65t-59.5 171q0 110 68 180.5t169 70.5q66 0 110 -31t44 -79q0 -29 -18.5 -46.5t-49.5 -17.5q-26 0 -41 19t-15 54q0 18 -0.5 26t-2.5 18.5t-6 15t-12.5 7.5t-20.5 3q-38 0 -61 -44.5t-23 -124.5 q0 -102 37 -161t102 -59q58 0 107 56z" />
<glyph unicode="d" horiz-adv-x="556" d="M534 20l-62 -8q-82 -11 -133 -25v65q-35 -37 -64 -51.5t-69 -14.5q-79 0 -130 66t-51 169q0 109 54.5 180.5t137.5 71.5q34 0 60.5 -13.5t58.5 -48.5v183q0 35 -13 44.5t-63 13.5v24h215v-575q0 -32 12.5 -44t46.5 -14v-23zM336 112v243q-11 29 -32 45.5t-46 16.5 q-85 0 -85 -188q0 -187 78 -187q36 0 66 37q19 25 19 33z" />
<glyph unicode="e" horiz-adv-x="444" d="M403 126l24 -14q-44 -70 -88.5 -98t-109.5 -28q-90 0 -147 67.5t-57 170.5q0 112 57.5 180.5t151.5 68.5q83 0 128 -50q53 -58 59 -178h-252q3 -42 8 -70.5t17 -57.5t35.5 -44t58.5 -15q32 0 58 15.5t57 52.5zM298 282v21q0 73 -9 92q-12 25 -23.5 36t-31.5 11 q-36 0 -53 -36.5t-17 -123.5h134z" />
<glyph unicode="f" horiz-adv-x="333" d="M14 461h57q0 131 40 179q42 51 135 51q64 0 103.5 -28t39.5 -72q0 -28 -17 -46t-45 -18q-25 0 -42.5 17t-17.5 40q0 20 11 36.5t11 20.5q0 19 -29 19q-27 0 -38.5 -17.5t-11.5 -61.5v-120h86v-44h-86v-310q0 -50 15 -66t67 -17v-24h-278v24q34 4 45.5 16.5t11.5 46.5v330 h-57v44z" />
<glyph unicode="g" horiz-adv-x="500" d="M254 68h52q81 0 129 -32.5t48 -87.5q0 -71 -68.5 -112.5t-192.5 -41.5q-194 0 -194 92q0 61 96 75q-47 17 -64.5 35t-17.5 47q0 44 29 71.5t90 45.5q-55 15 -89.5 56t-34.5 96q0 73 56.5 117t146.5 44q52 0 112 -22h129v-53h-80q40 -36 40 -98q0 -94 -92 -132 q-24 -10 -41 -12t-86 -2q-30 0 -49.5 -13.5t-19.5 -35.5q0 -21 21 -29t80 -8zM306 312q0 70 -15.5 100t-51.5 30t-50.5 -29t-14.5 -102q0 -70 15 -99.5t51 -29.5t51 29.5t15 100.5zM315 -52h-164q-21 -17 -28 -28t-7 -27q0 -67 134 -67q72 0 113 18.5t41 47.5q0 56 -89 56z " />
<glyph unicode="h" horiz-adv-x="556" d="M534 0h-234v24q25 3 35.5 16.5t10.5 44.5v224q0 54 -11 75.5t-40 21.5q-36 0 -70 -34q-17 -17 -17 -24v-263q0 -31 10 -44t38 -17v-24h-240v24q36 7 44.5 16t8.5 49v502q0 35 -9 44.5t-45 16.5v24h193v-280q65 77 147 77q60 0 95 -38t35 -98v-250q0 -34 11.5 -48.5 t37.5 -14.5v-24z" />
<glyph unicode="i" horiz-adv-x="278" d="M256 0h-240v24q35 8 44 19t9 45v285q0 33 -10.5 45t-43.5 19v24h193v-376q0 -32 10.5 -44.5t37.5 -16.5v-24zM215 613q0 -33 -22.5 -55t-55.5 -22t-55 22t-22 55t22.5 55.5t56.5 22.5q31 0 53.5 -23t22.5 -55z" />
<glyph unicode="j" horiz-adv-x="333" d="M260 461v-459q0 -84 -27 -129q-43 -76 -150 -76q-62 0 -101 28t-39 72q0 27 17 44t45 17q25 0 42 -15.5t17 -38.5q0 -16 -14 -37q-9 -15 -9 -22q0 -17 32 -17q25 0 36.5 18t11.5 58v474q0 32 -12.5 44t-50.5 15v24h202zM263 613q0 -33 -22.5 -55t-56.5 -22 q-33 0 -54.5 22t-21.5 55t22.5 55.5t55.5 22.5q31 0 54 -23t23 -55z" />
<glyph unicode="k" horiz-adv-x="556" d="M543 0h-234v24q42 2 42 19q0 12 -24 45l-95 134l-23 -24v-114q0 -35 8.5 -45t43.5 -15v-24h-239v24q48 4 48 60v510q0 54 -48 58v24h187v-431l128 128q21 21 21 38q0 18 -35 23l-24 4v23h214v-23q-47 -6 -80.5 -29t-108.5 -102l194 -268q11 -15 25 -15v-24z" />
<glyph unicode="l" horiz-adv-x="278" d="M256 0h-240v24q51 4 51 63v500q0 61 -52 65v24h191v-589q0 -33 12 -47.5t38 -15.5v-24z" />
<glyph unicode="m" horiz-adv-x="833" d="M814 0h-237v24q28 2 38 14.5t10 44.5v228q0 95 -53 95q-29 0 -58 -25q-9 -7 -18 -18t-9 -15v-265q0 -29 10 -42.5t36 -16.5v-24h-232v24q27 2 37 15t10 44v240q0 45 -12.5 64t-41.5 19q-19 0 -51.5 -22.5t-32.5 -39.5v-261q0 -29 9.5 -42t35.5 -17v-24h-239v24 q33 6 44 18.5t11 43.5v287q0 35 -11 47t-45 17v24h192v-75h3q29 46 62.5 66.5t81.5 20.5q47 0 76 -20t52 -67q39 48 71.5 67.5t75.5 19.5q62 0 98.5 -38t36.5 -104v-248q0 -32 10.5 -45t39.5 -14v-24z" />
<glyph unicode="n" horiz-adv-x="556" d="M539 0h-234v24q25 3 35.5 16.5t10.5 43.5v237q0 85 -51 85q-36 0 -70 -34q-17 -17 -17 -24v-264q0 -29 10.5 -42.5t37.5 -17.5v-24h-240v24q33 7 43 19t10 44v289q0 32 -10 44t-43 17v24h191v-75h1q49 87 142 87q62 0 98.5 -38.5t36.5 -103.5v-247q0 -34 10 -46t39 -14 v-24z" />
<glyph unicode="o" horiz-adv-x="500" d="M476 229q0 -105 -64.5 -174t-161.5 -69q-95 0 -160 68.5t-65 173.5q0 109 64.5 177t164.5 68q95 0 158.5 -69t63.5 -175zM329 218q0 128 -17 176t-61 48q-46 0 -62.5 -47.5t-16.5 -176.5q0 -109 18 -155t61 -46t60.5 44.5t17.5 156.5z" />
<glyph unicode="p" horiz-adv-x="556" d="M212 461v-69q25 44 55.5 62.5t75.5 18.5q85 0 133 -57.5t48 -166.5q0 -118 -51.5 -190t-140.5 -72q-34 0 -58 12.5t-60 47.5v-126q0 -52 16.5 -76t60.5 -26v-24h-272v24q35 6 45.5 18.5t10.5 44.5v490q0 33 -11 46.5t-44 18.5v24h192zM214 346v-239q12 -29 32.5 -47 t44.5 -18q85 0 85 192q0 182 -76 182q-37 0 -68 -37q-18 -21 -18 -33z" />
<glyph unicode="q" horiz-adv-x="556" d="M536 -205h-267v24q48 7 60.5 23.5t12.5 67.5v132q-44 -56 -123 -56t-132 63.5t-53 169.5q0 108 61.5 181t160.5 73q38 0 66 -12t66 -44l77 55h16v-595q0 -30 10 -40.5t45 -17.5v-24zM342 98v256q0 41 -18.5 64t-48.5 23q-44 0 -69.5 -51t-25.5 -154q0 -98 25 -147t68 -49 q28 0 48.5 15.5t20.5 42.5z" />
<glyph unicode="r" horiz-adv-x="444" d="M218 461v-82q35 51 66 72.5t69 21.5q35 0 58 -22.5t23 -56.5q0 -30 -17.5 -49t-45.5 -19q-37 0 -60 38q-14 23 -28 23q-26 0 -43.5 -30t-17.5 -74v-177q0 -48 13.5 -63.5t58.5 -18.5v-24h-265v24q33 6 43.5 17.5t10.5 42.5v289q0 35 -11 47t-44 17v24h190z" />
<glyph unicode="s" horiz-adv-x="389" d="M340 326h-25q-19 56 -47 82q-34 32 -75 32q-28 0 -47 -16.5t-19 -41.5q0 -26 22.5 -46.5t73.5 -41.5q75 -31 106.5 -67t31.5 -89q0 -67 -43 -109.5t-111 -42.5q-52 0 -108 23q-15 6 -23 6q-11 0 -26 -28h-25v165h28q32 -132 137 -132q34 0 54.5 18t20.5 47q0 24 -22 44.5 t-74 42.5q-75 32 -108.5 68.5t-33.5 86.5q0 63 44.5 104.5t112.5 41.5q34 0 78 -15q22 -7 31 -7q17 0 25 20h22v-145z" />
<glyph unicode="t" horiz-adv-x="333" d="M307 112l25 -11q-31 -62 -64.5 -87.5t-83.5 -25.5q-52 0 -82 28.5t-30 78.5v322h-53v27q49 33 82 71.5t85 114.5h25v-169h95v-44h-95v-298q0 -60 39 -60q29 0 57 53z" />
<glyph unicode="u" horiz-adv-x="556" d="M538 20l-63 -7q-83 -9 -132 -26v65q-39 -37 -71.5 -51.5t-73.5 -14.5q-63 0 -98 38t-35 107v241q0 35 -9 47t-40 18v24h188v-334q0 -76 56 -76q39 0 82 47v276q0 34 -12 47t-49 16v24h200v-356q0 -33 12 -47t45 -15v-23z" />
<glyph unicode="v" horiz-adv-x="500" d="M485 461v-24q-24 -2 -34 -11.5t-24 -43.5l-160 -396h-26l-120 296q-47 116 -66 141q-8 10 -34 14v24h250v-24l-18 -2q-35 -4 -35 -24q0 -9 9 -31l79 -203l72 182q11 26 11 45q0 18 -11.5 24.5t-43.5 8.5v24h151z" />
<glyph unicode="w" horiz-adv-x="722" d="M707 461v-24q-19 -4 -29.5 -14.5t-20.5 -35.5l-155 -401h-23l-102 310l-125 -310h-24l-148 374q-19 47 -28.5 60t-28.5 17v24h222v-24q-38 -5 -38 -28q0 -12 39 -115l45 -118l68 171q-4 12 -6 19q-14 49 -22 58.5t-37 12.5v24h234v-24q-28 -2 -38 -7t-10 -17 q0 -14 27 -106q23 -79 34 -127l35 94q44 118 44 128q0 17 -10 24.5t-38 10.5v24h135z" />
<glyph unicode="x" horiz-adv-x="500" d="M484 0h-241v24q45 3 45 20q0 16 -33 64q-23 32 -42 63q-2 -3 -7.5 -9.5t-8.5 -10.5q-64 -77 -64 -103q0 -21 50 -24v-24h-169v24q28 2 49.5 19.5t63.5 73.5l43 56q5 6 7.5 9.5t3.5 4.5t3.5 4.5t7.5 9.5l-128 197q-15 23 -24 29.5t-28 9.5v24h250v-24q-47 -1 -47 -19 q0 -22 58 -98q10 -12 13 -17l36 46q38 49 38 64q0 11 -7 15.5t-24 6.5l-20 2v24h168v-24q-44 -7 -70 -39l-101 -126l148 -228q8 -13 30 -20v-24z" />
<glyph unicode="y" horiz-adv-x="500" d="M482 461v-24q-24 -3 -36 -13.5t-24 -41.5l-148 -398q-45 -121 -77 -156q-31 -33 -84 -33q-43 0 -70 22t-27 57q0 29 17 48t45 19q25 0 42.5 -15t17.5 -37q0 -4 -2 -14l-1 -6q0 -7 5 -12t12 -5q38 0 66 82l18 53l-119 290q-49 121 -67 146q-8 10 -34 14v24h249v-24l-16 -1 q-36 -3 -36 -25q0 -7 20 -58l72 -186l68 188q11 32 11 49q0 18 -11 25t-43 8v24h152z" />
<glyph unicode="z" horiz-adv-x="444" d="M420 160l-16 -160h-383v25l234 404q-106 0 -139 -19t-52 -91h-26l7 142h371v-26l-231 -403h29q61 0 91.5 12.5t55.5 46.5q20 30 31 69h28z" />
<glyph unicode="{" horiz-adv-x="394" d="M340 -163v-12q-74 1 -112 9.5t-61 28.5q-38 32 -38 103v179q0 53 -21.5 76.5t-85.5 39.5q64 16 85.5 39.5t21.5 76.5v179q0 82 50 113q42 28 161 29v-12q-60 -13 -83 -40t-23 -84v-171q0 -63 -23.5 -89t-94.5 -41q71 -15 94.5 -41t23.5 -89v-171q0 -57 23.5 -84t82.5 -39 z" />
<glyph unicode="|" horiz-adv-x="220" d="M154 -19h-88v710h88v-710z" />
<glyph unicode="}" horiz-adv-x="394" d="M265 557v-179q0 -53 21.5 -76.5t85.5 -39.5q-64 -16 -85.5 -39.5t-21.5 -76.5v-179q0 -82 -50 -113q-42 -28 -161 -29v12q60 13 83 40t23 84v171q0 62 24 88.5t94 41.5q-71 15 -94.5 41t-23.5 89v171q0 57 -23.5 84t-82.5 39v12q119 -1 161 -29q50 -31 50 -112z" />
<glyph unicode="~" horiz-adv-x="520" d="M455 333l36 -70q-34 -47 -62 -66.5t-63 -19.5q-41 0 -103 33q-63 35 -113 35q-52 0 -85 -72l-36 70q26 45 54.5 65.5t68.5 20.5q41 0 134 -42q60 -26 81 -26q45 0 88 72z" />
<glyph unicode="&#xa1;" horiz-adv-x="333" d="M251 417q0 -35 -24.5 -60t-59.5 -25t-60 25t-25 61q0 35 25 59t61 24q35 0 59 -24.5t24 -59.5zM153 254h29q10 -91 20 -143t32 -125q18 -58 18 -89q0 -47 -22.5 -73.5t-62.5 -26.5t-62 26.5t-22 74.5q0 30 18 88q37 121 52 268z" />
<glyph unicode="&#xa2;" horiz-adv-x="500" d="M440 109l18 -18q-46 -58 -89 -81.5t-102 -23.5q-23 0 -50 7l-47 -133h-40l51 145q-39 19 -64 44q-64 66 -64 174q0 107 66 178.5t166 71.5q28 0 60 -8l44 123h40l-48 -136q63 -36 63 -88q0 -29 -18 -46.5t-48 -17.5q-25 0 -44 20l-82 -230q37 -37 83 -37q59 0 105 56z M321 397v3q0 18 -12 30t-31 12q-39 0 -61.5 -45.5t-22.5 -122.5q0 -80 31 -146z" />
<glyph unicode="&#xa3;" horiz-adv-x="500" d="M454 183h23q-9 -107 -38 -149q-34 -50 -93 -50q-31 0 -57 13.5t-68 51.5q-48 -62 -112 -62q-42 0 -65 22t-23 63q0 92 106 92q23 0 51 -7q-2 43 -41 151h-98v65h80q-14 79 -14 118q0 47 21.5 90t57.5 69q49 34 124 34q70 0 110.5 -30.5t40.5 -82.5q0 -34 -18 -53t-50 -19 q-28 0 -45 18t-17 47q0 8 1 22.5t1 24.5q1 21 -11 32t-33 11q-25 0 -40.5 -17t-15.5 -45q0 -47 39 -219h114v-65h-109q2 -38 2 -54q0 -61 -20 -120q61 -22 96 -22q47 0 68.5 15t32.5 56zM181 86q-36 32 -72 32q-26 0 -41 -14t-15 -38q0 -22 15 -35.5t41 -13.5q28 0 45 16 t27 53z" />
<glyph unicode="&#xa4;" horiz-adv-x="500" d="M526 48l-58 -58l-96 98q-60 -37 -122 -37t-122 37l-96 -98l-58 58l98 98q-37 56 -37 120q0 65 37 122l-98 98l58 56l96 -96q56 35 122 35t122 -35l96 96l58 -56l-98 -98q37 -59 37 -122q0 -69 -37 -120zM377 267q0 55 -37.5 93.5t-91.5 38.5q-52 0 -88.5 -39t-36.5 -93 q0 -56 36.5 -95t89.5 -39q54 0 91 39t37 95z" />
<glyph unicode="&#xa5;" horiz-adv-x="500" d="M547 676v-26q-46 -4 -64 -37l-144 -271h111v-50h-131l-4 -11v-67h135v-50h-135v-49q0 -51 18.5 -68t80.5 -22v-25h-331v25q64 5 83 22t19 68v49h-135v50h135v57l-11 21h-124v50h99l-130 255q-24 49 -83 53v26h301v-26q-45 -2 -61 -7.5t-16 -21.5q0 -18 76 -167l57 -112 l119 230q8 15 8 35q0 24 -15 32.5t-63 10.5v26h205z" />
<glyph unicode="&#xa6;" horiz-adv-x="220" d="M154 414h-88v277h88v-277zM154 -19h-88v277h88v-277z" />
<glyph unicode="&#xa7;" horiz-adv-x="500" d="M186 415h13q-62 54 -81 82t-19 64q0 57 42 93.5t107 36.5q59 0 102 -30t43 -70q0 -25 -19.5 -44t-45.5 -19q-22 0 -41 18.5t-19 38.5q0 22 27 43q15 12 15 19q0 8 -16.5 14.5t-37.5 6.5q-37 0 -60 -19t-23 -50q0 -51 104 -119q100 -65 146 -143q20 -34 20 -82 q0 -56 -39 -86q-31 -24 -102 -25q55 -39 78.5 -72.5t23.5 -74.5q0 -56 -46 -92.5t-118 -36.5q-62 0 -106 29.5t-44 70.5q0 28 18 46.5t45 18.5q26 0 45.5 -16.5t19.5 -39.5t-31 -42q-15 -10 -15 -15q0 -11 20.5 -20t47.5 -9q79 0 79 71q0 23 -8 38t-29 32l-57 46 q-107 86 -137.5 125.5t-30.5 89.5q0 122 129 122zM367 225q0 37 -43 77q-96 90 -139 90q-23 0 -38 -15.5t-15 -40.5q0 -28 13 -46.5t60 -59.5q43 -38 64.5 -50.5t44.5 -12.5t38 16.5t15 41.5z" />
<glyph unicode="&#xa8;" horiz-adv-x="333" d="M337 600q0 -26 -19 -44.5t-47 -18.5q-26 0 -44.5 19t-18.5 46q0 26 19 45t45 19t45.5 -19.5t19.5 -46.5zM127 600q0 -26 -18.5 -44.5t-46.5 -18.5q-26 0 -45 19t-19 46q0 26 19.5 45t45.5 19t45 -19.5t19 -46.5z" />
<glyph unicode="&#xa9;" horiz-adv-x="747" d="M544 256l-16 -74q-2 -15 -31 -23l-12 -3q-58 -14 -95 -14q-98 0 -156 53t-58 144q0 94 61.5 149.5t164.5 55.5q50 0 103 -19q22 -8 22 -21v-72h-19q-24 89 -107 89q-59 0 -91 -46t-32 -131q0 -86 32 -132.5t91 -46.5q42 0 71 21t53 70h19zM721 335q0 -150 -100 -252 t-246 -102q-149 0 -249 102.5t-100 254.5q0 150 101.5 251.5t252.5 101.5q143 0 242 -103.5t99 -252.5zM650 338q0 126 -81.5 213.5t-198.5 87.5q-112 0 -192.5 -89.5t-80.5 -214.5q0 -126 80.5 -214t196.5 -88q115 0 195.5 88.5t80.5 216.5z" />
<glyph unicode="&#xaa;" horiz-adv-x="300" d="M291 443l10 -12q-33 -34 -73 -34q-24 0 -36 9t-17 32q-49 -41 -102 -41q-33 0 -53.5 18.5t-20.5 47.5q0 38 36.5 61t137.5 49v40q0 28 -11.5 40t-38.5 12q-17 0 -29 -6.5t-12 -15.5q0 -5 9 -14q11 -11 11 -21q0 -16 -13.5 -25.5t-34.5 -9.5q-42 0 -42 40q0 34 35 54.5 t94 20.5t93 -22t34 -60v-156q0 -15 11 -15l6 2zM172 465v87q-75 -22 -75 -73q0 -17 9 -28.5t23 -11.5q23 0 43 26z" />
<glyph unicode="&#xab;" horiz-adv-x="500" d="M422 393l6 5q21 17 31 17q12 0 12 -11q0 -34 -93 -147q-16 -20 -23 -30q12 -18 40 -54q78 -101 78 -122q0 -15 -11 -15q-4 0 -29 16l-214 173v4zM226 393l6 5q21 17 31 17q12 0 12 -11q0 -33 -92 -147l-24 -30l40 -54q78 -92 78 -122q0 -15 -11 -15q-4 0 -29 16l-214 173 v4z" />
<glyph unicode="&#xac;" d="M685 108h-88v203h-532v88h620v-291z" />
<glyph unicode="&#xad;" horiz-adv-x="333" d="M287 171h-243v116h243v-116z" />
<glyph unicode="&#xae;" horiz-adv-x="747" d="M563 153h-81q-12 0 -26 18t-37 63q-20 40 -49 86h-37v-105q0 -30 6 -36t40 -8v-18h-172v18q34 2 40 8t6 36v255q0 31 -6 37t-40 7v18h193q53 0 84 -26t31 -70q0 -73 -80 -105l58 -82q40 -56 70 -85v-11zM333 342h35q62 0 62 89q0 79 -61 79h-36v-168zM721 335 q0 -150 -100 -252t-246 -102q-149 0 -249 102.5t-100 254.5q0 150 101.5 251.5t252.5 101.5q143 0 242 -103.5t99 -252.5zM650 338q0 126 -81.5 213.5t-198.5 87.5q-112 0 -192.5 -89.5t-80.5 -214.5q0 -126 80.5 -214t196.5 -88q115 0 195.5 88.5t80.5 216.5z" />
<glyph unicode="&#xaf;" horiz-adv-x="333" d="M331 565h-330v72h330v-72z" />
<glyph unicode="&#xb0;" horiz-adv-x="400" d="M343 545q0 -59 -42 -101t-101 -42t-101 42t-42 101t42 101t101 42t101 -42t42 -101zM288 545q0 37 -25.5 62.5t-62.5 25.5t-62.5 -25.5t-25.5 -62.5t25.5 -62.5t62.5 -25.5t62.5 25.5t25.5 62.5z" />
<glyph unicode="&#xb1;" horiz-adv-x="770" d="M685 209h-266v-221h-88v221h-266v88h266v221h88v-221h266v-88zM685 -151h-620v88h620v-88z" />
<glyph unicode="&#xb2;" horiz-adv-x="300" d="M300 402l-30 -127h-270v14q112 111 148 161t36 94q0 32 -22 54t-53 22q-47 0 -76 -54h-24q49 122 144 122q52 0 85.5 -31t33.5 -80q0 -33 -17 -63t-57 -67l-99 -92h92q50 0 64.5 7.5t28.5 39.5h16z" />
<glyph unicode="&#xb3;" horiz-adv-x="300" d="M36 590l-20 7q52 91 149 91q50 0 78 -21.5t28 -59.5q0 -27 -11.5 -43t-42.5 -33q80 -33 80 -107q0 -65 -56 -110.5t-138 -45.5q-46 0 -73 14.5t-27 39.5q0 28 40 41q23 -2 35 -8t32 -25q27 -26 49 -26q28 0 45.5 18t17.5 47q0 44 -29 71t-101 50v10q46 14 65 31.5 t19 47.5q0 28 -17.5 44.5t-47.5 16.5q-23 0 -39.5 -11t-35.5 -39z" />
<glyph unicode="&#xb4;" horiz-adv-x="333" d="M86 528l137 157q25 28 53 28q22 0 35 -12t13 -32q0 -17 -8 -27.5t-32 -25.5l-142 -88h-56z" />
<glyph unicode="&#xb5;" horiz-adv-x="556" d="M536 60v-24q-33 -30 -53.5 -39.5t-52.5 -9.5q-69 0 -101 52q-24 -29 -46 -40.5t-53 -11.5q-56 0 -102 35q4 -30 19 -81q14 -43 14 -70q0 -77 -63 -77q-31 0 -48 20t-17 57q0 16 10 57q23 95 23 160v373h139v-312q0 -33 16 -53.5t41 -20.5q32 0 74 27v359h139v-360 q0 -20 11.5 -33.5t28.5 -13.5q10 0 21 6z" />
<glyph unicode="&#xb6;" horiz-adv-x="639" d="M579 651l-26 -2q-37 -3 -46.5 -10.5t-9.5 -39.5v-704q0 -31 9 -41t45 -13l23 -2v-25h-171v837h-50v-837h-175v25q56 5 68.5 13t12.5 39v374q-69 3 -110 28q-89 55 -89 188q0 101 53 148t166 47h300v-25zM259 290v361q-36 -9 -54.5 -21t-31.5 -35q-23 -38 -23 -112 q0 -154 109 -193z" />
<glyph unicode="&#xb7;" horiz-adv-x="250" d="M210 332q0 -35 -24.5 -59.5t-60.5 -24.5t-60 24t-24 60q0 35 25 60t60 25q34 0 59 -25t25 -60z" />
<glyph unicode="&#xb8;" horiz-adv-x="333" d="M201 0l-28 -64q15 5 32 5q42 0 65.5 -18.5t23.5 -51.5q0 -41 -35 -65t-94 -24q-46 0 -97 18l16 37l6 -2q36 -12 53 -12q58 0 58 41q0 36 -46 36q-13 0 -28 -4l-11 8l43 96h42z" />
<glyph unicode="&#xb9;" horiz-adv-x="300" d="M273 275h-243v20q48 0 62.5 11.5t14.5 48.5v221q0 41 -23 41q-17 0 -43 -10l-13 -5v21l164 65h11v-337q0 -35 13 -45t57 -11v-20z" />
<glyph unicode="&#xba;" horiz-adv-x="330" d="M312 542q0 -63 -41.5 -104t-104.5 -41q-65 0 -106.5 41t-41.5 105q0 63 42 104t107 41q62 0 103.5 -42t41.5 -104zM214 534q0 77 -10.5 105t-39.5 28q-28 0 -38.5 -28t-10.5 -102q0 -67 11 -93.5t39 -26.5q27 0 38 26.5t11 90.5z" />
<glyph unicode="&#xbb;" horiz-adv-x="500" d="M477 222l-203 -164q-4 -4 -7 -5q-18 -17 -30 -17t-12 11q0 34 92 147l24 30q-22 32 -40 53q-78 93 -78 123q0 15 11 15q10 0 29 -16l214 -173v-4zM281 222l-203 -164l-6 -5q-19 -17 -31 -17t-12 11q0 34 93 147q16 20 23 30q-22 32 -40 53q-78 93 -78 123q0 15 11 15 q10 0 29 -16l214 -173v-4z" />
<glyph unicode="&#xbc;" d="M273 275h-243v20q48 0 62.5 11.5t14.5 48.5v221q0 41 -23 41q-17 0 -43 -10l-13 -5v21l164 65h11v-337q0 -35 13 -45t57 -11v-20zM743 87h-41v-87h-94v87h-161v67q66 97 164 213l39 46h52v-260h41v-66zM609 153v175l-137 -175h137zM671 688l-439 -700h-58l441 700h56z " />
<glyph unicode="&#xbd;" d="M775 127l-30 -127h-270v14l45 46q29 28 45 45.5t38.5 46.5t33 58t10.5 59q0 31 -17 54t-47 23q-46 0 -75 -55h-24q48 122 144 122q51 0 90 -30.5t39 -80.5q0 -12 -3 -24t-10 -24l-14 -20q-5 -9 -17.5 -22.5t-17.5 -18.5t-20 -19t-17 -16l-78 -73v-5h103q33 0 48 8.5 t28 38.5h16zM629 688l-439 -700h-58l441 700h56zM238 275h-243v20q31 0 44.5 2.5t23 16t9.5 41.5v221q0 41 -23 41q-20 0 -56 -15v21l164 65h11v-337q0 -37 14.5 -46t55.5 -10v-20z" />
<glyph unicode="&#xbe;" d="M733 87h-41v-87h-94v87h-161v67q66 97 164 213l39 46h52v-260h41v-66zM599 153v175l-137 -175h137zM669 688l-439 -700h-58l441 700h56zM241 533v-4q76 -30 76 -105q0 -65 -56.5 -110.5t-137.5 -45.5q-46 0 -73 14.5t-27 39.5q0 28 40 41q21 -2 32.5 -8t34.5 -25 q30 -26 49 -26q28 0 45.5 18t17.5 47q0 44 -29 71t-101 50v10q46 14 65 31.5t19 47.5q0 28 -17.5 44.5t-47.5 16.5q-23 0 -39.5 -11t-35.5 -39l-20 7q52 91 149 91q50 0 78 -21.5t28 -59.5q0 -26 -11 -42.5t-39 -31.5z" />
<glyph unicode="&#xbf;" horiz-adv-x="500" d="M346 417q0 -35 -25 -60t-61 -25q-34 0 -58.5 25t-24.5 60t24.5 59.5t59.5 24.5q36 0 60.5 -24.5t24.5 -59.5zM247 256h30q3 -25 3 -45q-1 -46 -38.5 -123.5t-37.5 -122.5q0 -58 22.5 -94t61.5 -36q28 0 44.5 11t16.5 29q0 13 -15 29q-22 25 -22 51q0 28 20.5 47.5 t44.5 19.5q29 0 47.5 -22.5t18.5 -55.5q0 -63 -51 -104t-133 -41q-93 0 -148.5 46.5t-55.5 119.5q0 52 26 87.5t95 78.5q47 29 59 49.5t12 75.5z" />
<glyph unicode="&#xc0;" horiz-adv-x="722" d="M457 778h-56l-142 88q-40 25 -40 52q0 19 13.5 32t33.5 13q29 0 54 -28zM689 0h-322v25l32 3q25 2 35.5 9.5t10.5 23.5q0 29 -46 136h-225l-13 -34q-31 -80 -31 -97q0 -19 18.5 -28.5t62.5 -12.5v-25h-202v25q35 6 53 28t46 92l221 545h28l222 -522q38 -90 58.5 -116.5 t51.5 -26.5v-25zM384 236l-101 243l-94 -243h195z" />
<glyph unicode="&#xc1;" horiz-adv-x="722" d="M229 778l137 157q25 28 53 28q22 0 35 -12t13 -32q0 -17 -8 -27.5t-32 -25.5l-142 -88h-56zM689 0h-322v25l32 3q25 2 35.5 9.5t10.5 23.5q0 29 -46 136h-225l-13 -34q-31 -80 -31 -97q0 -19 18.5 -28.5t62.5 -12.5v-25h-202v25q35 6 53 28t46 92l221 545h28l222 -522 q38 -90 58.5 -116.5t51.5 -26.5v-25zM384 236l-101 243l-94 -243h195z" />
<glyph unicode="&#xc2;" horiz-adv-x="722" d="M511 778h-57l-112 98l-112 -98h-56l122 176h92zM689 0h-322v25l32 3q25 2 35.5 9.5t10.5 23.5q0 29 -46 136h-225l-13 -34q-31 -80 -31 -97q0 -19 18.5 -28.5t62.5 -12.5v-25h-202v25q35 6 53 28t46 92l221 545h28l222 -522q38 -90 58.5 -116.5t51.5 -26.5v-25zM384 236 l-101 243l-94 -243h195z" />
<glyph unicode="&#xc3;" horiz-adv-x="722" d="M481 924h43q-34 -127 -116 -127q-32 0 -65 14l-29 13q-48 22 -64 22q-19 0 -32.5 -13t-16.5 -34h-42q14 65 42 95t74 30q31 0 73 -19l40 -18q27 -12 39 -12q20 0 32 11t22 38zM689 0h-322v25l32 3q25 2 35.5 9.5t10.5 23.5q0 29 -46 136h-225l-13 -34q-31 -80 -31 -97 q0 -19 18.5 -28.5t62.5 -12.5v-25h-202v25q35 6 53 28t46 92l221 545h28l222 -522q38 -90 58.5 -116.5t51.5 -26.5v-25zM384 236l-101 243l-94 -243h195z" />
<glyph unicode="&#xc4;" horiz-adv-x="722" d="M511 850q0 -26 -19 -44.5t-47 -18.5q-26 0 -44.5 19t-18.5 46q0 26 19 45t45 19t45.5 -19.5t19.5 -46.5zM301 850q0 -26 -18.5 -44.5t-46.5 -18.5q-26 0 -45 19t-19 46q0 26 19.5 45t45.5 19t45 -19.5t19 -46.5zM689 0h-322v25l32 3q25 2 35.5 9.5t10.5 23.5 q0 29 -46 136h-225l-13 -34q-31 -80 -31 -97q0 -19 18.5 -28.5t62.5 -12.5v-25h-202v25q35 6 53 28t46 92l221 545h28l222 -522q38 -90 58.5 -116.5t51.5 -26.5v-25zM384 236l-101 243l-94 -243h195z" />
<glyph unicode="&#xc5;" horiz-adv-x="722" d="M448 895q0 -44 -31 -76t-75 -32q-45 0 -76 30.5t-31 75.5q0 44 32 75.5t76 31.5q43 0 74 -31t31 -74zM400 892q0 25 -18 42.5t-43 17.5q-22 0 -39 -17.5t-17 -40.5q0 -24 17 -41.5t40 -17.5q25 0 42.5 16.5t17.5 40.5zM689 0h-322v25l32 3q25 2 35.5 9.5t10.5 23.5 q0 29 -46 136h-225l-13 -34q-31 -80 -31 -97q0 -19 18.5 -28.5t62.5 -12.5v-25h-202v25q35 6 53 28t46 92l221 545h28l222 -522q38 -90 58.5 -116.5t51.5 -26.5v-25zM384 236l-101 243l-94 -243h195z" />
<glyph unicode="&#xc6;" horiz-adv-x="1000" d="M951 211l-41 -211h-566v25q55 3 71.5 20.5t16.5 73.5v184h-190l-100 -188q-15 -29 -15 -45q0 -21 13.5 -29.5t52.5 -13.5l17 -2v-25h-206v25q30 5 46 23t64 105l220 402q28 50 28 62q0 18 -19 26t-68 11v22h634v-201h-25q-16 80 -44 114q-42 52 -181 52q-40 0 -53.5 -6 t-13.5 -24v-248q88 7 111 29.5t44 119.5h23v-338h-23q-14 93 -42.5 122.5t-112.5 34.5v-243q0 -32 15.5 -43t58.5 -11q126 0 186 61q26 27 48 60.5t28 55.5h23zM432 343v290h-7l-161 -290h168z" />
<glyph unicode="&#xc7;" horiz-adv-x="722" d="M657 152l30 -25q-70 -80 -134 -112.5t-152 -33.5l-20 -45q15 5 32 5q42 0 65.5 -18.5t23.5 -51.5q0 -41 -35 -65t-94 -24q-46 0 -97 18l16 37l6 -2q35 -12 53 -12q58 0 58 41q0 36 -46 36q-13 0 -28 -4l-11 8l35 79l-3 1q-136 13 -221.5 110t-85.5 238q0 154 99.5 256.5 t248.5 102.5q70 0 155 -35q32 -14 46 -14t23.5 9.5t20.5 36.5h27v-234h-25q-26 57 -47.5 88.5t-53.5 59.5q-63 56 -133 56q-91 0 -137.5 -80.5t-46.5 -236.5q0 -146 43 -225q22 -39 65.5 -63t92.5 -24q47 0 90 18q37 14 66.5 36.5t73.5 68.5z" />
<glyph unicode="&#xc8;" horiz-adv-x="667" d="M452 778h-56l-142 88q-40 25 -40 52q0 19 13.5 32t33.5 13q29 0 54 -28zM641 208l-40 -208h-585v25q54 6 71 21t17 55v479q0 38 -18 53t-70 18v25h577v-201h-25q-17 100 -65.5 133.5t-171.5 33.5q-38 0 -51.5 -12t-13.5 -42v-225q81 1 117 32.5t45 116.5h26v-338h-26 q-7 88 -43 121.5t-119 33.5v-242q0 -32 17.5 -44t65.5 -12q117 0 182 54q25 20 42 46t40 77h28z" />
<glyph unicode="&#xc9;" horiz-adv-x="667" d="M231 778l137 157q25 28 53 28q22 0 35 -12t13 -32q0 -17 -8 -27.5t-32 -25.5l-142 -88h-56zM641 208l-40 -208h-585v25q54 6 71 21t17 55v479q0 38 -18 53t-70 18v25h577v-201h-25q-17 100 -65.5 133.5t-171.5 33.5q-38 0 -51.5 -12t-13.5 -42v-225q81 1 117 32.5 t45 116.5h26v-338h-26q-7 88 -43 121.5t-119 33.5v-242q0 -32 17.5 -44t65.5 -12q117 0 182 54q25 20 42 46t40 77h28z" />
<glyph unicode="&#xca;" horiz-adv-x="667" d="M511 778h-57l-112 98l-112 -98h-56l122 176h92zM641 208l-40 -208h-585v25q54 6 71 21t17 55v479q0 38 -18 53t-70 18v25h577v-201h-25q-17 100 -65.5 133.5t-171.5 33.5q-38 0 -51.5 -12t-13.5 -42v-225q81 1 117 32.5t45 116.5h26v-338h-26q-7 88 -43 121.5t-119 33.5 v-242q0 -32 17.5 -44t65.5 -12q117 0 182 54q25 20 42 46t40 77h28z" />
<glyph unicode="&#xcb;" horiz-adv-x="667" d="M511 850q0 -26 -19 -44.5t-47 -18.5q-26 0 -44.5 19t-18.5 46q0 26 19 45t45 19t45.5 -19.5t19.5 -46.5zM301 850q0 -26 -18.5 -44.5t-46.5 -18.5q-26 0 -45 19t-19 46q0 26 19.5 45t45.5 19t45 -19.5t19 -46.5zM641 208l-40 -208h-585v25q54 6 71 21t17 55v479 q0 38 -18 53t-70 18v25h577v-201h-25q-17 100 -65.5 133.5t-171.5 33.5q-38 0 -51.5 -12t-13.5 -42v-225q81 1 117 32.5t45 116.5h26v-338h-26q-7 88 -43 121.5t-119 33.5v-242q0 -32 17.5 -44t65.5 -12q117 0 182 54q25 20 42 46t40 77h28z" />
<glyph unicode="&#xcc;" horiz-adv-x="389" d="M317 778h-56l-142 88q-40 25 -40 52q0 19 13.5 32t33.5 13q29 0 54 -28zM370 0h-350v25q57 5 75 20t18 61v470q0 41 -19 56t-74 19v25h350v-25q-56 -2 -75.5 -17.5t-19.5 -57.5v-470q0 -48 18.5 -62.5t76.5 -18.5v-25z" />
<glyph unicode="&#xcd;" horiz-adv-x="389" d="M73 778l137 157q25 28 53 28q22 0 35 -12t13 -32q0 -17 -8 -27.5t-32 -25.5l-142 -88h-56zM370 0h-350v25q57 5 75 20t18 61v470q0 41 -19 56t-74 19v25h350v-25q-56 -2 -75.5 -17.5t-19.5 -57.5v-470q0 -48 18.5 -62.5t76.5 -18.5v-25z" />
<glyph unicode="&#xce;" horiz-adv-x="389" d="M363 778h-57l-112 98l-112 -98h-56l122 176h92zM370 0h-350v25q57 5 75 20t18 61v470q0 41 -19 56t-74 19v25h350v-25q-56 -2 -75.5 -17.5t-19.5 -57.5v-470q0 -48 18.5 -62.5t76.5 -18.5v-25z" />
<glyph unicode="&#xcf;" horiz-adv-x="389" d="M363 850q0 -26 -19 -44.5t-47 -18.5q-26 0 -44.5 19t-18.5 46q0 26 19 45t45 19t45.5 -19.5t19.5 -46.5zM153 850q0 -26 -18.5 -44.5t-46.5 -18.5q-26 0 -45 19t-19 46q0 26 19.5 45t45.5 19t45 -19.5t19 -46.5zM370 0h-350v25q57 5 75 20t18 61v470q0 41 -19 56t-74 19 v25h350v-25q-56 -2 -75.5 -17.5t-19.5 -57.5v-470q0 -48 18.5 -62.5t76.5 -18.5v-25z" />
<glyph unicode="&#xd0;" horiz-adv-x="722" d="M14 676h305q174 0 272.5 -88t98.5 -243q0 -149 -90 -241q-47 -49 -118.5 -76.5t-151.5 -27.5h-316v25q43 1 63 17t20 49v235h-91v47h91v211q0 34 -17.5 48t-65.5 19v25zM259 326v-233q0 -34 12 -46t46 -12q98 0 149 72q50 73 50 223q0 132 -42 212q-54 100 -155 100 q-36 0 -48 -9.5t-12 -37.5v-222h114v-47h-114z" />
<glyph unicode="&#xd1;" horiz-adv-x="722" d="M498 924h43q-34 -127 -116 -127q-32 0 -65 14l-29 13q-48 22 -64 22q-19 0 -32.5 -13t-16.5 -34h-42q14 65 42 95t74 30q31 0 73 -19l40 -18q27 -12 39 -12q20 0 32 11t22 38zM701 676v-25q-50 -8 -64 -22.5t-14 -60.5v-586h-28l-447 545v-396q0 -58 18 -78.5t76 -27.5 v-25h-226v25q55 7 71.5 22.5t16.5 61.5v470q-52 72 -85 72v25h211l349 -430v299q0 60 -18 80.5t-74 25.5v25h214z" />
<glyph unicode="&#xd2;" horiz-adv-x="778" d="M503 778h-56l-142 88q-40 25 -40 52q0 19 13.5 32t33.5 13q29 0 54 -28zM743 335q0 -156 -99.5 -255t-255.5 -99q-155 0 -254 99t-99 254q0 159 101 258t258 99q151 0 250 -100.5t99 -255.5zM566 328q0 160 -46.5 245t-134.5 85q-83 0 -128 -85.5t-45 -242.5t46 -236.5 t132 -79.5t131 80t45 234z" />
<glyph unicode="&#xd3;" horiz-adv-x="778" d="M267 778l137 157q25 28 53 28q22 0 35 -12t13 -32q0 -17 -8 -27.5t-32 -25.5l-142 -88h-56zM743 335q0 -156 -99.5 -255t-255.5 -99q-155 0 -254 99t-99 254q0 159 101 258t258 99q151 0 250 -100.5t99 -255.5zM566 328q0 160 -46.5 245t-134.5 85q-83 0 -128 -85.5 t-45 -242.5t46 -236.5t132 -79.5t131 80t45 234z" />
<glyph unicode="&#xd4;" horiz-adv-x="778" d="M552 778h-57l-112 98l-112 -98h-56l122 176h92zM743 335q0 -156 -99.5 -255t-255.5 -99q-155 0 -254 99t-99 254q0 159 101 258t258 99q151 0 250 -100.5t99 -255.5zM566 328q0 160 -46.5 245t-134.5 85q-83 0 -128 -85.5t-45 -242.5t46 -236.5t132 -79.5t131 80t45 234z " />
<glyph unicode="&#xd5;" horiz-adv-x="778" d="M527 924h43q-34 -127 -116 -127q-32 0 -65 14l-29 13q-48 22 -64 22q-19 0 -32.5 -13t-16.5 -34h-42q14 65 42 95t74 30q31 0 73 -19l40 -18q27 -12 39 -12q20 0 32 11t22 38zM743 335q0 -156 -99.5 -255t-255.5 -99q-155 0 -254 99t-99 254q0 159 101 258t258 99 q151 0 250 -100.5t99 -255.5zM566 328q0 160 -46.5 245t-134.5 85q-83 0 -128 -85.5t-45 -242.5t46 -236.5t132 -79.5t131 80t45 234z" />
<glyph unicode="&#xd6;" horiz-adv-x="778" d="M554 850q0 -26 -19 -44.5t-47 -18.5q-26 0 -44.5 19t-18.5 46q0 26 19 45t45 19t45.5 -19.5t19.5 -46.5zM344 850q0 -26 -18.5 -44.5t-46.5 -18.5q-26 0 -45 19t-19 46q0 26 19.5 45t45.5 19t45 -19.5t19 -46.5zM743 335q0 -156 -99.5 -255t-255.5 -99q-155 0 -254 99 t-99 254q0 159 101 258t258 99q151 0 250 -100.5t99 -255.5zM566 328q0 160 -46.5 245t-134.5 85q-83 0 -128 -85.5t-45 -242.5t46 -236.5t132 -79.5t131 80t45 234z" />
<glyph unicode="&#xd7;" horiz-adv-x="702" d="M636 29l-62 -62l-223 224l-223 -224l-62 62l223 224l-222 223l62 62l222 -223l223 223l62 -62l-223 -223z" />
<glyph unicode="&#xd8;" horiz-adv-x="778" d="M685 737l-78 -115q65 -53 93 -106q43 -80 43 -180q0 -156 -99.5 -255.5t-254.5 -99.5q-99 0 -187 49l-71 -104h-50l86 126q-44 38 -66.5 68t-40.5 75q-25 65 -25 140q0 155 100 255.5t255 100.5q94 0 182 -47l63 93h50zM234 151l286 418q-26 48 -56.5 68.5t-74.5 20.5 q-85 0 -131 -85.5t-46 -244.5q0 -99 22 -177zM540 524l-287 -420q26 -48 57.5 -69t78.5 -21q87 0 132 80.5t45 236.5q0 109 -26 193z" />
<glyph unicode="&#xd9;" horiz-adv-x="722" d="M479 778h-56l-142 88q-40 25 -40 52q0 19 13.5 32t33.5 13q29 0 54 -28zM701 676v-25q-48 -7 -63 -24t-15 -61v-314q0 -156 -76 -216q-68 -55 -184 -55t-185 54q-43 34 -61.5 79t-18.5 117v324q0 59 -14 75t-68 21v25h336v-25q-60 -5 -77.5 -23t-17.5 -78v-318 q0 -202 146 -202q176 0 176 222v300q0 54 -20.5 74t-76.5 25v25h219z" />
<glyph unicode="&#xda;" horiz-adv-x="722" d="M242 778l137 157q25 28 53 28q22 0 35 -12t13 -32q0 -17 -8 -27.5t-32 -25.5l-142 -88h-56zM701 676v-25q-48 -7 -63 -24t-15 -61v-314q0 -156 -76 -216q-68 -55 -184 -55t-185 54q-43 34 -61.5 79t-18.5 117v324q0 59 -14 75t-68 21v25h336v-25q-60 -5 -77.5 -23 t-17.5 -78v-318q0 -202 146 -202q176 0 176 222v300q0 54 -20.5 74t-76.5 25v25h219z" />
<glyph unicode="&#xdb;" horiz-adv-x="722" d="M530 778h-57l-112 98l-112 -98h-56l122 176h92zM701 676v-25q-48 -7 -63 -24t-15 -61v-314q0 -156 -76 -216q-68 -55 -184 -55t-185 54q-43 34 -61.5 79t-18.5 117v324q0 59 -14 75t-68 21v25h336v-25q-60 -5 -77.5 -23t-17.5 -78v-318q0 -202 146 -202q176 0 176 222 v300q0 54 -20.5 74t-76.5 25v25h219z" />
<glyph unicode="&#xdc;" horiz-adv-x="722" d="M533 850q0 -26 -19 -44.5t-47 -18.5q-26 0 -44.5 19t-18.5 46q0 26 19 45t45 19t45.5 -19.5t19.5 -46.5zM323 850q0 -26 -18.5 -44.5t-46.5 -18.5q-26 0 -45 19t-19 46q0 26 19.5 45t45.5 19t45 -19.5t19 -46.5zM701 676v-25q-48 -7 -63 -24t-15 -61v-314 q0 -156 -76 -216q-68 -55 -184 -55t-185 54q-43 34 -61.5 79t-18.5 117v324q0 59 -14 75t-68 21v25h336v-25q-60 -5 -77.5 -23t-17.5 -78v-318q0 -202 146 -202q176 0 176 222v300q0 54 -20.5 74t-76.5 25v25h219z" />
<glyph unicode="&#xdd;" horiz-adv-x="722" d="M249 778l137 157q25 28 53 28q22 0 35 -12t13 -32q0 -17 -8 -27.5t-32 -25.5l-142 -88h-56zM699 676v-25q-49 -7 -68 -39l-191 -311v-178q0 -58 16.5 -75.5t75.5 -22.5v-25h-347v25q60 5 76.5 25t16.5 78v136l-180 328q-31 56 -83 59v25h335v-25l-27 -2q-32 -2 -43 -7.5 t-11 -21.5q0 -13 24 -59l120 -232l109 178q41 68 41 102q0 22 -16.5 30t-67.5 12v25h220z" />
<glyph unicode="&#xde;" horiz-adv-x="611" d="M262 546h66q150 0 216 -55q56 -48 56 -128q0 -98 -88 -150q-41 -25 -86 -32t-164 -8v-56q0 -55 14.5 -69.5t73.5 -22.5v-25h-334v25l24 4q36 6 48 23.5t12 64.5v442q0 53 -16 70.5t-68 21.5v25h334v-25q-60 -8 -74 -23t-14 -70v-12zM262 476v-268q98 0 132 31t34 120 q0 82 -27 117t-89 35q-50 0 -50 -35z" />
<glyph unicode="&#xdf;" horiz-adv-x="556" d="M70 87v420q0 81 58 132.5t149 51.5q86 0 142.5 -43.5t56.5 -110.5q0 -66 -61 -107q-34 -23 -95 -37q106 -31 147 -71q50 -47 50 -128q0 -86 -55 -146t-134 -60q-23 0 -64 15l14 34l10 -7q10 -7 21 -7q36 0 49 36.5t13 137.5q0 125 -39 157q-19 16 -63 19v34q43 1 56.5 25 t13.5 98q0 70 -16.5 101.5t-53.5 31.5q-60 0 -60 -77v-586h-190v24q32 5 41.5 16.5t9.5 46.5z" />
<glyph unicode="&#xe0;" horiz-adv-x="500" d="M473 64l15 -21q-53 -57 -112 -57q-37 0 -55.5 15.5t-26.5 53.5q-76 -69 -159 -69q-50 0 -80 26.5t-30 79.5q0 67 67 112q50 33 201 76v68q0 49 -18.5 71t-62.5 22q-28 0 -46.5 -10t-18.5 -27q0 -11 11 -23q19 -23 19 -42q0 -26 -19 -43t-49 -17q-31 0 -48 18t-17 50 q0 59 52.5 92.5t138.5 33.5q92 0 144 -35t52 -99v-261q0 -28 21 -28q7 0 11 4zM293 97v148q-122 -34 -122 -121q0 -32 14.5 -49.5t37.5 -17.5q42 0 70 40zM365 528h-56l-142 88q-40 25 -40 52q0 19 13.5 32t33.5 13q29 0 54 -28z" />
<glyph unicode="&#xe1;" horiz-adv-x="500" d="M145 528l137 157q25 28 53 28q22 0 35 -12t13 -32q0 -17 -8 -27.5t-32 -25.5l-142 -88h-56zM473 64l15 -21q-53 -57 -112 -57q-37 0 -55.5 15.5t-26.5 53.5q-76 -69 -159 -69q-50 0 -80 26.5t-30 79.5q0 67 67 112q50 33 201 76v68q0 49 -18.5 71t-62.5 22 q-28 0 -46.5 -10t-18.5 -27q0 -11 11 -23q19 -23 19 -42q0 -26 -19 -43t-49 -17q-31 0 -48 18t-17 50q0 59 52.5 92.5t138.5 33.5q92 0 144 -35t52 -99v-261q0 -28 21 -28q7 0 11 4zM293 97v148q-122 -34 -122 -121q0 -32 14.5 -49.5t37.5 -17.5q42 0 70 40z" />
<glyph unicode="&#xe2;" horiz-adv-x="500" d="M424 528h-57l-112 98l-112 -98h-56l122 176h92zM473 64l15 -21q-53 -57 -112 -57q-37 0 -55.5 15.5t-26.5 53.5q-76 -69 -159 -69q-50 0 -80 26.5t-30 79.5q0 67 67 112q50 33 201 76v68q0 49 -18.5 71t-62.5 22q-28 0 -46.5 -10t-18.5 -27q0 -11 11 -23q19 -23 19 -42 q0 -26 -19 -43t-49 -17q-31 0 -48 18t-17 50q0 59 52.5 92.5t138.5 33.5q92 0 144 -35t52 -99v-261q0 -28 21 -28q7 0 11 4zM293 97v148q-122 -34 -122 -121q0 -32 14.5 -49.5t37.5 -17.5q42 0 70 40z" />
<glyph unicode="&#xe3;" horiz-adv-x="500" d="M394 674h43q-34 -127 -116 -127q-32 0 -65 14l-29 13q-48 22 -64 22q-19 0 -32.5 -13t-16.5 -34h-42q14 65 42 95t74 30q31 0 73 -19l40 -18q27 -12 39 -12q20 0 32 11t22 38zM473 64l15 -21q-53 -57 -112 -57q-37 0 -55.5 15.5t-26.5 53.5q-76 -69 -159 -69 q-50 0 -80 26.5t-30 79.5q0 67 67 112q50 33 201 76v68q0 49 -18.5 71t-62.5 22q-28 0 -46.5 -10t-18.5 -27q0 -11 11 -23q19 -23 19 -42q0 -26 -19 -43t-49 -17q-31 0 -48 18t-17 50q0 59 52.5 92.5t138.5 33.5q92 0 144 -35t52 -99v-261q0 -28 21 -28q7 0 11 4zM293 97 v148q-122 -34 -122 -121q0 -32 14.5 -49.5t37.5 -17.5q42 0 70 40z" />
<glyph unicode="&#xe4;" horiz-adv-x="500" d="M425 600q0 -26 -19 -44.5t-47 -18.5q-26 0 -44.5 19t-18.5 46q0 26 19 45t45 19t45.5 -19.5t19.5 -46.5zM215 600q0 -26 -18.5 -44.5t-46.5 -18.5q-26 0 -45 19t-19 46q0 26 19.5 45t45.5 19t45 -19.5t19 -46.5zM473 64l15 -21q-53 -57 -112 -57q-37 0 -55.5 15.5 t-26.5 53.5q-76 -69 -159 -69q-50 0 -80 26.5t-30 79.5q0 67 67 112q50 33 201 76v68q0 49 -18.5 71t-62.5 22q-28 0 -46.5 -10t-18.5 -27q0 -11 11 -23q19 -23 19 -42q0 -26 -19 -43t-49 -17q-31 0 -48 18t-17 50q0 59 52.5 92.5t138.5 33.5q92 0 144 -35t52 -99v-261 q0 -28 21 -28q7 0 11 4zM293 97v148q-122 -34 -122 -121q0 -32 14.5 -49.5t37.5 -17.5q42 0 70 40z" />
<glyph unicode="&#xe5;" horiz-adv-x="500" d="M362 647q0 -44 -31 -76t-75 -32q-45 0 -76 30.5t-31 75.5q0 44 32 75.5t76 31.5q43 0 74 -31t31 -74zM314 644q0 25 -18 42.5t-43 17.5q-22 0 -39 -17.5t-17 -40.5q0 -24 17 -41.5t40 -17.5q25 0 42.5 16.5t17.5 40.5zM473 64l15 -21q-53 -57 -112 -57q-37 0 -55.5 15.5 t-26.5 53.5q-76 -69 -159 -69q-50 0 -80 26.5t-30 79.5q0 67 67 112q50 33 201 76v68q0 49 -18.5 71t-62.5 22q-28 0 -46.5 -10t-18.5 -27q0 -11 11 -23q19 -23 19 -42q0 -26 -19 -43t-49 -17q-31 0 -48 18t-17 50q0 59 52.5 92.5t138.5 33.5q92 0 144 -35t52 -99v-261 q0 -28 21 -28q7 0 11 4zM293 97v148q-122 -34 -122 -121q0 -32 14.5 -49.5t37.5 -17.5q42 0 70 40z" />
<glyph unicode="&#xe6;" horiz-adv-x="722" d="M673 129l21 -15q-44 -68 -91.5 -95.5t-118.5 -27.5q-101 0 -147 84h-6q-72 -89 -180 -89q-118 0 -118 108q0 55 59 105q50 42 204 86v75q0 44 -18 62.5t-60 18.5q-28 0 -46.5 -10t-18.5 -25q0 -9 12 -22q17 -20 17 -43q0 -28 -18.5 -45t-48.5 -17q-31 0 -48 19.5 t-17 49.5q0 54 52 89.5t132 35.5q95 0 140 -51q46 51 127 51q56 0 100 -26.5t66 -74.5q21 -45 21 -124h-254v-23q0 -85 26.5 -124.5t88.5 -39.5q69 0 124 68zM567 285v33q0 70 -14 97.5t-49 27.5q-38 0 -54 -37t-16 -121h133zM296 81v167q-66 -24 -92.5 -52.5t-26.5 -75.5 q0 -71 57 -71q31 0 62 32z" />
<glyph unicode="&#xe7;" horiz-adv-x="444" d="M412 109l18 -18q-70 -95 -165 -104l-23 -51q15 5 32 5q42 0 65.5 -18.5t23.5 -51.5q0 -41 -35 -65t-94 -24q-46 0 -97 18l16 37l6 -2q35 -12 53 -12q58 0 58 41q0 36 -46 36q-13 0 -28 -4l-11 8l36 83q-87 6 -141.5 70t-54.5 165q0 110 68 180.5t169 70.5q66 0 110 -31 t44 -79q0 -29 -18.5 -46.5t-49.5 -17.5q-26 0 -41 19t-15 54q0 18 -0.5 26t-2.5 18.5t-6 15t-12.5 7.5t-20.5 3q-38 0 -61 -44.5t-23 -124.5q0 -102 37 -161t102 -59q58 0 107 56z" />
<glyph unicode="&#xe8;" horiz-adv-x="444" d="M403 126l24 -14q-44 -70 -88.5 -98t-109.5 -28q-90 0 -147 67.5t-57 170.5q0 112 57.5 180.5t151.5 68.5q83 0 128 -50q53 -58 59 -178h-252q3 -42 8 -70.5t17 -57.5t35.5 -44t58.5 -15q32 0 58 15.5t57 52.5zM298 282v21q0 73 -9 92q-12 25 -23.5 36t-31.5 11 q-36 0 -53 -36.5t-17 -123.5h134zM360 528h-56l-142 88q-40 25 -40 52q0 19 13.5 32t33.5 13q29 0 54 -28z" />
<glyph unicode="&#xe9;" horiz-adv-x="444" d="M124 528l137 157q25 28 53 28q22 0 35 -12t13 -32q0 -17 -8 -27.5t-32 -25.5l-142 -88h-56zM403 126l24 -14q-44 -70 -88.5 -98t-109.5 -28q-90 0 -147 67.5t-57 170.5q0 112 57.5 180.5t151.5 68.5q83 0 128 -50q53 -58 59 -178h-252q3 -42 8 -70.5t17 -57.5t35.5 -44 t58.5 -15q32 0 58 15.5t57 52.5zM298 282v21q0 73 -9 92q-12 25 -23.5 36t-31.5 11q-36 0 -53 -36.5t-17 -123.5h134z" />
<glyph unicode="&#xea;" horiz-adv-x="444" d="M409 528h-57l-112 98l-112 -98h-56l122 176h92zM403 126l24 -14q-44 -70 -88.5 -98t-109.5 -28q-90 0 -147 67.5t-57 170.5q0 112 57.5 180.5t151.5 68.5q83 0 128 -50q53 -58 59 -178h-252q3 -42 8 -70.5t17 -57.5t35.5 -44t58.5 -15q32 0 58 15.5t57 52.5zM298 282v21 q0 73 -9 92q-12 25 -23.5 36t-31.5 11q-36 0 -53 -36.5t-17 -123.5h134z" />
<glyph unicode="&#xeb;" horiz-adv-x="444" d="M411 600q0 -26 -19 -44.5t-47 -18.5q-26 0 -44.5 19t-18.5 46q0 26 19 45t45 19t45.5 -19.5t19.5 -46.5zM201 600q0 -26 -18.5 -44.5t-46.5 -18.5q-26 0 -45 19t-19 46q0 26 19.5 45t45.5 19t45 -19.5t19 -46.5zM403 126l24 -14q-44 -70 -88.5 -98t-109.5 -28 q-90 0 -147 67.5t-57 170.5q0 112 57.5 180.5t151.5 68.5q83 0 128 -50q53 -58 59 -178h-252q3 -42 8 -70.5t17 -57.5t35.5 -44t58.5 -15q32 0 58 15.5t57 52.5zM298 282v21q0 73 -9 92q-12 25 -23.5 36t-31.5 11q-36 0 -53 -36.5t-17 -123.5h134z" />
<glyph unicode="&#xec;" horiz-adv-x="278" d="M257 528h-56l-142 88q-40 25 -40 52q0 19 13.5 32t33.5 13q29 0 54 -28zM256 0h-240v24q34 7 43.5 19t9.5 45v286q0 33 -10.5 44.5t-44.5 18.5v24h194v-376q0 -30 10.5 -43.5t37.5 -17.5v-24z" />
<glyph unicode="&#xed;" horiz-adv-x="278" d="M256 0h-240v24q35 8 44 19t9 45v285q0 33 -10.5 45t-43.5 19v24h193v-376q0 -32 10.5 -44.5t37.5 -16.5v-24zM20 528l137 157q25 28 53 28q22 0 35 -12t13 -32q0 -17 -8 -27.5t-32 -25.5l-142 -88h-56z" />
<glyph unicode="&#xee;" horiz-adv-x="278" d="M308 528h-57l-112 98l-112 -98h-56l122 176h92zM212 0h-240v24q35 8 44 19t9 45v285q0 33 -10.5 45t-43.5 19v24h193v-376q0 -32 10.5 -44.5t37.5 -16.5v-24z" />
<glyph unicode="&#xef;" horiz-adv-x="278" d="M212 0h-240v24q35 8 44 19t9 45v285q0 33 -10.5 45t-43.5 19v24h193v-376q0 -32 10.5 -44.5t37.5 -16.5v-24zM310 600q0 -26 -19 -44.5t-47 -18.5q-26 0 -44.5 19t-18.5 46q0 26 19 45t45 19t45.5 -19.5t19.5 -46.5zM100 600q0 -26 -18.5 -44.5t-46.5 -18.5q-26 0 -45 19 t-19 46q0 26 19.5 45t45.5 19t45 -19.5t19 -46.5z" />
<glyph unicode="&#xf0;" horiz-adv-x="500" d="M427 661l-92 -47q46 -38 69 -67.5t41 -75.5q31 -77 31 -173q0 -148 -57.5 -230t-167.5 -82q-99 0 -162.5 66.5t-63.5 176.5q0 108 63.5 176t160.5 68q31 0 51 -9t40 -32l2 3q-26 79 -86 139l-110 -56l-48 31l117 59q-63 45 -133 58l46 25q88 -9 160 -46l90 46zM329 230 q0 119 -17.5 165.5t-61.5 46.5q-34 0 -53 -34q-25 -43 -25 -187q0 -44 2.5 -75.5t10 -63.5t24.5 -48.5t43 -16.5q44 0 60.5 46t16.5 167z" />
<glyph unicode="&#xf1;" horiz-adv-x="556" d="M421 674h43q-34 -127 -116 -127q-32 0 -65 14l-29 13q-48 22 -64 22q-19 0 -32.5 -13t-16.5 -34h-42q14 65 42 95t74 30q31 0 73 -19l40 -18q27 -12 39 -12q20 0 32 11t22 38zM539 0h-234v24q25 3 35.5 16.5t10.5 43.5v237q0 85 -51 85q-36 0 -70 -34q-17 -17 -17 -24 v-264q0 -29 10.5 -42.5t37.5 -17.5v-24h-240v24q33 7 43 19t10 44v289q0 32 -10 44t-43 17v24h191v-75h1q49 87 142 87q62 0 98.5 -38.5t36.5 -103.5v-247q0 -34 10 -46t39 -14v-24z" />
<glyph unicode="&#xf2;" horiz-adv-x="500" d="M476 229q0 -105 -64.5 -174t-161.5 -69q-95 0 -160 68.5t-65 173.5q0 109 64.5 177t164.5 68q95 0 158.5 -69t63.5 -175zM329 218q0 128 -17 176t-61 48q-46 0 -62.5 -47.5t-16.5 -176.5q0 -109 18 -155t61 -46t60.5 44.5t17.5 156.5zM370 528h-56l-142 88q-40 25 -40 52 q0 19 13.5 32t33.5 13q29 0 54 -28z" />
<glyph unicode="&#xf3;" horiz-adv-x="500" d="M132 528l137 157q25 28 53 28q22 0 35 -12t13 -32q0 -17 -8 -27.5t-32 -25.5l-142 -88h-56zM476 229q0 -105 -64.5 -174t-161.5 -69q-95 0 -160 68.5t-65 173.5q0 109 64.5 177t164.5 68q95 0 158.5 -69t63.5 -175zM329 218q0 128 -17 176t-61 48q-46 0 -62.5 -47.5 t-16.5 -176.5q0 -109 18 -155t61 -46t60.5 44.5t17.5 156.5z" />
<glyph unicode="&#xf4;" horiz-adv-x="500" d="M421 528h-57l-112 98l-112 -98h-56l122 176h92zM476 229q0 -105 -64.5 -174t-161.5 -69q-95 0 -160 68.5t-65 173.5q0 109 64.5 177t164.5 68q95 0 158.5 -69t63.5 -175zM329 218q0 128 -17 176t-61 48q-46 0 -62.5 -47.5t-16.5 -176.5q0 -109 18 -155t61 -46t60.5 44.5 t17.5 156.5z" />
<glyph unicode="&#xf5;" horiz-adv-x="500" d="M391 674h43q-34 -127 -116 -127q-32 0 -65 14l-29 13q-48 22 -64 22q-19 0 -32.5 -13t-16.5 -34h-42q14 65 42 95t74 30q31 0 73 -19l40 -18q27 -12 39 -12q20 0 32 11t22 38zM476 229q0 -105 -64.5 -174t-161.5 -69q-95 0 -160 68.5t-65 173.5q0 109 64.5 177t164.5 68 q95 0 158.5 -69t63.5 -175zM329 218q0 128 -17 176t-61 48q-46 0 -62.5 -47.5t-16.5 -176.5q0 -109 18 -155t61 -46t60.5 44.5t17.5 156.5z" />
<glyph unicode="&#xf6;" horiz-adv-x="500" d="M421 600q0 -26 -19 -44.5t-47 -18.5q-26 0 -44.5 19t-18.5 46q0 26 19 45t45 19t45.5 -19.5t19.5 -46.5zM211 600q0 -26 -18.5 -44.5t-46.5 -18.5q-26 0 -45 19t-19 46q0 26 19.5 45t45.5 19t45 -19.5t19 -46.5zM476 229q0 -105 -64.5 -174t-161.5 -69q-95 0 -160 68.5 t-65 173.5q0 109 64.5 177t164.5 68q95 0 158.5 -69t63.5 -175zM329 218q0 128 -17 176t-61 48q-46 0 -62.5 -47.5t-16.5 -176.5q0 -109 18 -155t61 -46t60.5 44.5t17.5 156.5z" />
<glyph unicode="&#xf7;" horiz-adv-x="570" d="M362 461q0 -31 -23 -54t-53 -23q-31 0 -54 22.5t-23 53.5q0 32 22.5 54.5t54.5 22.5q30 0 53 -23t23 -53zM537 209h-504v88h504v-88zM362 47q0 -31 -23.5 -54.5t-53.5 -23.5t-53 23t-23 54t22.5 53.5t54.5 22.5q30 0 53 -23t23 -52z" />
<glyph unicode="&#xf8;" horiz-adv-x="500" d="M461 549l-73 -123q88 -79 88 -197q0 -105 -64 -174t-161 -69q-56 0 -107 27l-63 -105h-47l76 128q-85 79 -85 193q0 105 64.5 174.5t162.5 69.5q53 0 103 -25l60 101h46zM173 140l143 242q-10 33 -24.5 46.5t-39.5 13.5q-47 0 -63.5 -48.5t-16.5 -184.5q0 -49 1 -69z M327 324l-144 -244q18 -63 68 -63q43 0 60.5 44.5t17.5 155.5q0 60 -2 107z" />
<glyph unicode="&#xf9;" horiz-adv-x="556" d="M538 20l-63 -7q-83 -9 -132 -26v65q-39 -37 -71.5 -51.5t-73.5 -14.5q-63 0 -98 38t-35 107v241q0 35 -9 47t-40 18v24h188v-334q0 -76 56 -76q39 0 82 47v276q0 34 -12 47t-49 16v24h200v-356q0 -33 12 -47t45 -15v-23zM393 528h-56l-142 88q-40 25 -40 52q0 19 13.5 32 t33.5 13q29 0 54 -28z" />
<glyph unicode="&#xfa;" horiz-adv-x="556" d="M156 528l137 157q25 28 53 28q22 0 35 -12t13 -32q0 -17 -8 -27.5t-32 -25.5l-142 -88h-56zM538 20l-63 -7q-83 -9 -132 -26v65q-39 -37 -71.5 -51.5t-73.5 -14.5q-63 0 -98 38t-35 107v241q0 35 -9 47t-40 18v24h188v-334q0 -76 56 -76q39 0 82 47v276q0 34 -12 47 t-49 16v24h200v-356q0 -33 12 -47t45 -15v-23z" />
<glyph unicode="&#xfb;" horiz-adv-x="556" d="M443 528h-57l-112 98l-112 -98h-56l122 176h92zM538 20l-63 -7q-83 -9 -132 -26v65q-39 -37 -71.5 -51.5t-73.5 -14.5q-63 0 -98 38t-35 107v241q0 35 -9 47t-40 18v24h188v-334q0 -76 56 -76q39 0 82 47v276q0 34 -12 47t-49 16v24h200v-356q0 -33 12 -47t45 -15v-23z " />
<glyph unicode="&#xfc;" horiz-adv-x="556" d="M443 600q0 -26 -19 -44.5t-47 -18.5q-26 0 -44.5 19t-18.5 46q0 26 19 45t45 19t45.5 -19.5t19.5 -46.5zM233 600q0 -26 -18.5 -44.5t-46.5 -18.5q-26 0 -45 19t-19 46q0 26 19.5 45t45.5 19t45 -19.5t19 -46.5zM538 20l-63 -7q-83 -9 -132 -26v65q-39 -37 -71.5 -51.5 t-73.5 -14.5q-63 0 -98 38t-35 107v241q0 35 -9 47t-40 18v24h188v-334q0 -76 56 -76q39 0 82 47v276q0 34 -12 47t-49 16v24h200v-356q0 -33 12 -47t45 -15v-23z" />
<glyph unicode="&#xfd;" horiz-adv-x="500" d="M129 528l137 157q25 28 53 28q22 0 35 -12t13 -32q0 -17 -8 -27.5t-32 -25.5l-142 -88h-56zM482 461v-24q-24 -3 -36 -13.5t-24 -41.5l-148 -398q-45 -121 -77 -156q-31 -33 -84 -33q-43 0 -70 22t-27 57q0 29 17 48t45 19q25 0 42.5 -15t17.5 -37q0 -4 -2 -14l-1 -6 q0 -7 5 -12t12 -5q38 0 66 82l18 53l-119 290q-49 121 -67 146q-8 10 -34 14v24h249v-24l-16 -1q-36 -3 -36 -25q0 -7 20 -58l72 -186l68 188q11 32 11 49q0 18 -11 25t-43 8v24h152z" />
<glyph unicode="&#xfe;" horiz-adv-x="556" d="M214 676v-285q22 44 50.5 63t73.5 19q83 0 134.5 -64.5t51.5 -169.5q0 -111 -53.5 -181.5t-138.5 -70.5q-34 0 -58 12.5t-60 47.5v-141q0 -50 16 -69t62 -21v-21h-273v24q36 6 46 16.5t10 41.5v717q0 30 -10 40.5t-45 17.5v24h194zM214 346v-243q28 -61 79 -61 q83 0 83 187t-76 187q-37 0 -68 -37q-18 -21 -18 -33z" />
<glyph unicode="&#xff;" horiz-adv-x="500" d="M416 600q0 -26 -19 -44.5t-47 -18.5q-26 0 -44.5 19t-18.5 46q0 26 19 45t45 19t45.5 -19.5t19.5 -46.5zM206 600q0 -26 -18.5 -44.5t-46.5 -18.5q-26 0 -45 19t-19 46q0 26 19.5 45t45.5 19t45 -19.5t19 -46.5zM482 461v-24q-24 -3 -36 -13.5t-24 -41.5l-148 -398 q-45 -121 -77 -156q-31 -33 -84 -33q-43 0 -70 22t-27 57q0 29 17 48t45 19q25 0 42.5 -15t17.5 -37q0 -4 -2 -14l-1 -6q0 -7 5 -12t12 -5q38 0 66 82l18 53l-119 290q-49 121 -67 146q-8 10 -34 14v24h249v-24l-16 -1q-36 -3 -36 -25q0 -7 20 -58l72 -186l68 188 q11 32 11 49q0 18 -11 25t-43 8v24h152z" />
<glyph unicode="&#x100;" horiz-adv-x="722" d="M515 738h-330v72h330v-72zM689 0h-322v25l32 3q25 2 35.5 9.5t10.5 23.5q0 29 -46 136h-225l-13 -34q-31 -80 -31 -97q0 -19 18.5 -28.5t62.5 -12.5v-25h-202v25q35 6 53 28t46 92l221 545h28l222 -522q38 -90 58.5 -116.5t51.5 -26.5v-25zM384 236l-101 243l-94 -243 h195z" />
<glyph unicode="&#x101;" horiz-adv-x="500" d="M415 528h-330v72h330v-72zM473 64l15 -21q-53 -57 -112 -57q-37 0 -55.5 15.5t-26.5 53.5q-76 -69 -159 -69q-50 0 -80 26.5t-30 79.5q0 67 67 112q50 33 201 76v68q0 49 -18.5 71t-62.5 22q-28 0 -46.5 -10t-18.5 -27q0 -11 11 -23q19 -23 19 -42q0 -26 -19 -43t-49 -17 q-31 0 -48 18t-17 50q0 59 52.5 92.5t138.5 33.5q92 0 144 -35t52 -99v-261q0 -28 21 -28q7 0 11 4zM293 97v148q-122 -34 -122 -121q0 -32 14.5 -49.5t37.5 -17.5q42 0 70 40z" />
<glyph unicode="&#x102;" horiz-adv-x="722" d="M455 901h44q-6 -75 -43.5 -119t-108.5 -44q-73 0 -111.5 44.5t-39.5 118.5h44q17 -87 102 -87q47 0 73.5 20t39.5 67zM689 0h-322v25l32 3q25 2 35.5 9.5t10.5 23.5q0 29 -46 136h-225l-13 -34q-31 -80 -31 -97q0 -19 18.5 -28.5t62.5 -12.5v-25h-202v25q35 6 53 28 t46 92l221 545h28l222 -522q38 -90 58.5 -116.5t51.5 -26.5v-25zM384 236l-101 243l-94 -243h195z" />
<glyph unicode="&#x103;" horiz-adv-x="500" d="M351 691h44q-6 -75 -43.5 -119t-108.5 -44q-73 0 -111.5 44.5t-39.5 118.5h44q17 -87 102 -87q47 0 73.5 20t39.5 67zM473 64l15 -21q-53 -57 -112 -57q-37 0 -55.5 15.5t-26.5 53.5q-76 -69 -159 -69q-50 0 -80 26.5t-30 79.5q0 67 67 112q50 33 201 76v68 q0 49 -18.5 71t-62.5 22q-28 0 -46.5 -10t-18.5 -27q0 -11 11 -23q19 -23 19 -42q0 -26 -19 -43t-49 -17q-31 0 -48 18t-17 50q0 59 52.5 92.5t138.5 33.5q92 0 144 -35t52 -99v-261q0 -28 21 -28q7 0 11 4zM293 97v148q-122 -34 -122 -121q0 -32 14.5 -49.5t37.5 -17.5 q42 0 70 40z" />
<glyph unicode="&#x104;" horiz-adv-x="722" d="M560 0h-193v25l32 3q25 2 35.5 9.5t10.5 23.5q0 29 -46 136h-225l-13 -34q-31 -80 -31 -97q0 -19 18.5 -28.5t62.5 -12.5v-25h-202v25q35 6 53 28t46 92l221 545h28l222 -522q38 -90 58.5 -116.5t51.5 -26.5v-25h-99q-1 -2 -3 -8q-11 -39 -11 -64q0 -35 14 -49.5 t47 -14.5q22 0 48 13q4 2 13 8l23 -16q-18 -34 -54 -54t-72 -20q-47 0 -75 21.5t-28 56.5q0 28 11.5 51.5t42.5 59.5q4 6 8 10zM384 236l-101 243l-94 -243h195z" />
<glyph unicode="&#x105;" horiz-adv-x="500" d="M546 -115l23 -16q-18 -34 -54 -54t-72 -20q-47 0 -75 21.5t-28 56.5q0 28 11.5 51.5t42.5 59.5l3 3q-7 -1 -21 -1q-37 0 -55.5 15.5t-26.5 53.5q-76 -69 -159 -69q-50 0 -80 26.5t-30 79.5q0 67 67 112q50 33 201 76v68q0 49 -18.5 71t-62.5 22q-28 0 -46.5 -10 t-18.5 -27q0 -11 11 -23q19 -23 19 -42q0 -26 -19 -43t-49 -17q-31 0 -48 18t-17 50q0 59 52.5 92.5t138.5 33.5q92 0 144 -35t52 -99v-261q0 -28 21 -28q7 0 11 4l10 10l15 -21q-24 -27 -50 -42q-2 -3 -3 -9q-11 -39 -11 -64q0 -35 14 -49.5t47 -14.5q22 0 48 13q4 2 13 8z M293 97v148q-122 -34 -122 -121q0 -32 14.5 -49.5t37.5 -17.5q42 0 70 40z" />
<glyph unicode="&#x106;" horiz-adv-x="722" d="M316 738l137 157q25 28 53 28q22 0 35 -12t13 -32q0 -17 -8 -27.5t-32 -25.5l-142 -88h-56zM657 152l30 -25q-67 -83 -132.5 -114.5t-155.5 -31.5q-159 0 -254.5 96.5t-95.5 245.5q0 160 97.5 264t249.5 104q71 0 156 -35q32 -14 46 -14t23.5 9.5t20.5 36.5h27v-235h-25 q-22 62 -67 115q-75 90 -167 90q-81 0 -132.5 -83.5t-51.5 -229.5q0 -155 54 -240q22 -34 62.5 -55t84.5 -21q64 0 126 34q41 23 104 89z" />
<glyph unicode="&#x107;" horiz-adv-x="444" d="M162 528l137 157q25 28 53 28q22 0 35 -12t13 -32q0 -17 -8 -27.5t-32 -25.5l-142 -88h-56zM412 109l18 -18q-41 -56 -86 -80.5t-105 -24.5q-95 0 -154.5 65t-59.5 171q0 110 68 180.5t169 70.5q66 0 110 -31t44 -79q0 -29 -18.5 -46.5t-49.5 -17.5q-26 0 -41 19t-15 54 q0 18 -0.5 26t-2.5 18.5t-6 15t-12.5 7.5t-20.5 3q-38 0 -61 -44.5t-23 -124.5q0 -102 37 -161t102 -59q58 0 107 56z" />
<glyph unicode="&#x108;" horiz-adv-x="722" d="M539 738h-57l-112 98l-112 -98h-56l122 176h92zM657 152l30 -25q-67 -83 -132.5 -114.5t-155.5 -31.5q-159 0 -254.5 96.5t-95.5 245.5q0 160 97.5 264t249.5 104q71 0 156 -35q32 -14 46 -14t23.5 9.5t20.5 36.5h27v-235h-25q-22 62 -67 115q-75 90 -167 90 q-81 0 -132.5 -83.5t-51.5 -229.5q0 -155 54 -240q22 -34 62.5 -55t84.5 -21q64 0 126 34q41 23 104 89z" />
<glyph unicode="&#x109;" horiz-adv-x="444" d="M399 528h-57l-112 98l-112 -98h-56l122 176h92zM412 109l18 -18q-41 -56 -86 -80.5t-105 -24.5q-95 0 -154.5 65t-59.5 171q0 110 68 180.5t169 70.5q66 0 110 -31t44 -79q0 -29 -18.5 -46.5t-49.5 -17.5q-26 0 -41 19t-15 54q0 18 -0.5 26t-2.5 18.5t-6 15t-12.5 7.5 t-20.5 3q-38 0 -61 -44.5t-23 -124.5q0 -102 37 -161t102 -59q58 0 107 56z" />
<glyph unicode="&#x10a;" horiz-adv-x="722" d="M435 810q0 -26 -19 -44.5t-47 -18.5q-26 0 -44.5 19t-18.5 46q0 26 19 45t45 19t45.5 -19.5t19.5 -46.5zM657 152l30 -25q-67 -83 -132.5 -114.5t-155.5 -31.5q-159 0 -254.5 96.5t-95.5 245.5q0 160 97.5 264t249.5 104q71 0 156 -35q32 -14 46 -14t23.5 9.5t20.5 36.5 h27v-235h-25q-22 62 -67 115q-75 90 -167 90q-81 0 -132.5 -83.5t-51.5 -229.5q0 -155 54 -240q22 -34 62.5 -55t84.5 -21q64 0 126 34q41 23 104 89z" />
<glyph unicode="&#x10b;" horiz-adv-x="444" d="M305 600q0 -26 -19 -44.5t-47 -18.5q-26 0 -44.5 19t-18.5 46q0 26 19 45t45 19t45.5 -19.5t19.5 -46.5zM412 109l18 -18q-41 -56 -86 -80.5t-105 -24.5q-95 0 -154.5 65t-59.5 171q0 110 68 180.5t169 70.5q66 0 110 -31t44 -79q0 -29 -18.5 -46.5t-49.5 -17.5 q-26 0 -41 19t-15 54q0 18 -0.5 26t-2.5 18.5t-6 15t-12.5 7.5t-20.5 3q-38 0 -61 -44.5t-23 -124.5q0 -102 37 -161t102 -59q58 0 107 56z" />
<glyph unicode="&#x10c;" horiz-adv-x="722" d="M564 914l-123 -176h-92l-122 176h57l111 -99l111 99h58zM657 152l30 -25q-67 -83 -132.5 -114.5t-155.5 -31.5q-159 0 -254.5 96.5t-95.5 245.5q0 160 97.5 264t249.5 104q71 0 156 -35q32 -14 46 -14t23.5 9.5t20.5 36.5h27v-235h-25q-22 62 -67 115q-75 90 -167 90 q-81 0 -132.5 -83.5t-51.5 -229.5q0 -155 54 -240q22 -34 62.5 -55t84.5 -21q64 0 126 34q41 23 104 89z" />
<glyph unicode="&#x10d;" horiz-adv-x="444" d="M416 704l-123 -176h-92l-122 176h57l111 -99l111 99h58zM412 109l18 -18q-41 -56 -86 -80.5t-105 -24.5q-95 0 -154.5 65t-59.5 171q0 110 68 180.5t169 70.5q66 0 110 -31t44 -79q0 -29 -18.5 -46.5t-49.5 -17.5q-26 0 -41 19t-15 54q0 18 -0.5 26t-2.5 18.5t-6 15 t-12.5 7.5t-20.5 3q-38 0 -61 -44.5t-23 -124.5q0 -102 37 -161t102 -59q58 0 107 56z" />
<glyph unicode="&#x10e;" horiz-adv-x="722" d="M484 914l-123 -176h-92l-122 176h57l111 -99l111 99h58zM14 676h312q171 0 267.5 -88t96.5 -243q0 -77 -30.5 -147t-84.5 -117q-93 -81 -252 -81h-309v25q43 1 63 19t20 54v486q0 34 -17.5 48t-65.5 19v25zM259 598v-498q0 -35 12.5 -50t45.5 -15q98 0 149 72 q23 33 36.5 94.5t13.5 128.5q0 139 -41 211q-58 101 -163 101q-53 0 -53 -44z" />
<glyph unicode="&#x10f;" horiz-adv-x="680" d="M534 20l-62 -8q-82 -11 -133 -25v65q-35 -37 -64 -51.5t-69 -14.5q-79 0 -130 66t-51 169q0 109 54.5 180.5t137.5 71.5q34 0 60.5 -13.5t58.5 -48.5v183q0 35 -13 44.5t-63 13.5v24h215v-575q0 -32 12.5 -44t46.5 -14v-23zM336 112v243q-11 29 -32 45.5t-46 16.5 q-85 0 -85 -188q0 -187 78 -187q36 0 66 37q19 25 19 33zM544 374l-11 22q109 76 109 133q0 21 -19 21q-3 0 -11 -1t-13 -1q-32 0 -52.5 21t-20.5 55q0 39 23 62t61 23q47 0 73.5 -31t26.5 -85q0 -132 -166 -219z" />
<glyph unicode="&#x110;" horiz-adv-x="722" d="M14 676h305q174 0 272.5 -88t98.5 -243q0 -149 -90 -241q-47 -49 -118.5 -76.5t-151.5 -27.5h-316v25q43 1 63 17t20 49v235h-91v47h91v211q0 34 -17.5 48t-65.5 19v25zM259 326v-233q0 -34 12 -46t46 -12q98 0 149 72q50 73 50 223q0 132 -42 212q-54 100 -155 100 q-36 0 -48 -9.5t-12 -37.5v-222h114v-47h-114z" />
<glyph unicode="&#x111;" horiz-adv-x="556" d="M534 20l-62 -8q-82 -11 -133 -25v65q-35 -37 -64 -51.5t-69 -14.5q-79 0 -130 66t-51 169q0 109 54.5 180.5t137.5 71.5q34 0 60.5 -13.5t58.5 -48.5v106h-178v50h178v27q0 35 -13 44.5t-63 13.5v24h215v-109h53v-50h-53v-416q0 -32 12.5 -44t46.5 -14v-23zM336 112v243 q-11 29 -32 45.5t-46 16.5q-85 0 -85 -188q0 -186 78 -186q37 0 66 36q19 25 19 33z" />
<glyph unicode="&#x112;" horiz-adv-x="667" d="M490 738h-330v72h330v-72zM641 208l-40 -208h-585v25q54 6 71 21t17 55v479q0 38 -18 53t-70 18v25h577v-201h-25q-17 100 -65.5 133.5t-171.5 33.5q-38 0 -51.5 -12t-13.5 -42v-225q81 1 117 32.5t45 116.5h26v-338h-26q-7 88 -43 121.5t-119 33.5v-242q0 -32 17.5 -44 t65.5 -12q117 0 182 54q25 20 42 46t40 77h28z" />
<glyph unicode="&#x113;" horiz-adv-x="444" d="M395 528h-330v72h330v-72zM403 126l24 -14q-44 -70 -88.5 -98t-109.5 -28q-90 0 -147 67.5t-57 170.5q0 112 57.5 180.5t151.5 68.5q83 0 128 -50q53 -58 59 -178h-252q3 -42 8 -70.5t17 -57.5t35.5 -44t58.5 -15q32 0 58 15.5t57 52.5zM298 282v21q0 73 -9 92 q-12 25 -23.5 36t-31.5 11q-36 0 -53 -36.5t-17 -123.5h134z" />
<glyph unicode="&#x114;" horiz-adv-x="667" d="M433 901h44q-6 -75 -43.5 -119t-108.5 -44q-73 0 -111.5 44.5t-39.5 118.5h44q17 -87 102 -87q47 0 73.5 20t39.5 67zM641 208l-40 -208h-585v25q54 6 71 21t17 55v479q0 38 -18 53t-70 18v25h577v-201h-25q-17 100 -65.5 133.5t-171.5 33.5q-38 0 -51.5 -12t-13.5 -42 v-225q81 1 117 32.5t45 116.5h26v-338h-26q-7 88 -43 121.5t-119 33.5v-242q0 -32 17.5 -44t65.5 -12q117 0 182 54q25 20 42 46t40 77h28z" />
<glyph unicode="&#x115;" horiz-adv-x="444" d="M338 691h44q-6 -75 -43.5 -119t-108.5 -44q-73 0 -111.5 44.5t-39.5 118.5h44q17 -87 102 -87q47 0 73.5 20t39.5 67zM403 126l24 -14q-44 -70 -88.5 -98t-109.5 -28q-90 0 -147 67.5t-57 170.5q0 112 57.5 180.5t151.5 68.5q83 0 128 -50q53 -58 59 -178h-252 q3 -42 8 -70.5t17 -57.5t35.5 -44t58.5 -15q32 0 58 15.5t57 52.5zM298 282v21q0 73 -9 92q-12 25 -23.5 36t-31.5 11q-36 0 -53 -36.5t-17 -123.5h134z" />
<glyph unicode="&#x116;" horiz-adv-x="667" d="M395 810q0 -26 -19 -44.5t-47 -18.5q-26 0 -44.5 19t-18.5 46q0 26 19 45t45 19t45.5 -19.5t19.5 -46.5zM641 208l-40 -208h-585v25q54 6 71 21t17 55v479q0 38 -18 53t-70 18v25h577v-201h-25q-17 100 -65.5 133.5t-171.5 33.5q-38 0 -51.5 -12t-13.5 -42v-225 q81 1 117 32.5t45 116.5h26v-338h-26q-7 88 -43 121.5t-119 33.5v-242q0 -32 17.5 -44t65.5 -12q117 0 182 54q25 20 42 46t40 77h28z" />
<glyph unicode="&#x117;" horiz-adv-x="444" d="M295 600q0 -26 -19 -44.5t-47 -18.5q-26 0 -44.5 19t-18.5 46q0 26 19 45t45 19t45.5 -19.5t19.5 -46.5zM403 126l24 -14q-44 -70 -88.5 -98t-109.5 -28q-90 0 -147 67.5t-57 170.5q0 112 57.5 180.5t151.5 68.5q83 0 128 -50q53 -58 59 -178h-252q3 -42 8 -70.5 t17 -57.5t35.5 -44t58.5 -15q32 0 58 15.5t57 52.5zM298 282v21q0 73 -9 92q-12 25 -23.5 36t-31.5 11q-36 0 -53 -36.5t-17 -123.5h134z" />
<glyph unicode="&#x118;" horiz-adv-x="667" d="M407 0h-391v25q54 6 71 21t17 55v479q0 38 -18 53t-70 18v25h577v-201h-25q-17 100 -65.5 133.5t-171.5 33.5q-38 0 -51.5 -12t-13.5 -42v-225q81 1 117 32.5t45 116.5h26v-338h-26q-7 88 -43 121.5t-119 33.5v-242q0 -32 17.5 -44t65.5 -12q117 0 182 54q25 20 42 46 t40 77h28l-40 -208h-164q-1 -2 -3 -8q-11 -39 -11 -64q0 -35 14 -49.5t47 -14.5q22 0 48 13q4 2 13 8l23 -16q-18 -34 -54 -54t-72 -20q-47 0 -75 21.5t-28 56.5q0 28 11.5 51.5t42.5 59.5q5 6 9 10t5 6z" />
<glyph unicode="&#x119;" horiz-adv-x="444" d="M412 -115l23 -16q-18 -34 -54 -54t-72 -20q-47 0 -75 21.5t-28 56.5q0 28 11.5 51.5t42.5 59.5l1 2q1 2 2 2q-22 -2 -34 -2q-90 0 -147 67.5t-57 170.5q0 112 57.5 180.5t151.5 68.5q83 0 128 -50q53 -58 59 -178h-252q3 -42 8 -70.5t17 -57.5t35.5 -44t58.5 -15 q32 0 58 15.5t57 52.5l24 -14q-59 -92 -124 -115q-1 -1 -1 -2.5t-1 -2.5q-11 -39 -11 -64q0 -35 14 -49.5t47 -14.5q22 0 48 13q4 2 13 8zM298 282v21q0 73 -9 92q-12 25 -23.5 36t-31.5 11q-36 0 -53 -36.5t-17 -123.5h134z" />
<glyph unicode="&#x11a;" horiz-adv-x="667" d="M509 914l-123 -176h-92l-122 176h57l111 -99l111 99h58zM641 208l-40 -208h-585v25q54 6 71 21t17 55v479q0 38 -18 53t-70 18v25h577v-201h-25q-17 100 -65.5 133.5t-171.5 33.5q-38 0 -51.5 -12t-13.5 -42v-225q81 1 117 32.5t45 116.5h26v-338h-26q-7 88 -43 121.5 t-119 33.5v-242q0 -32 17.5 -44t65.5 -12q117 0 182 54q25 20 42 46t40 77h28z" />
<glyph unicode="&#x11b;" horiz-adv-x="444" d="M402 704l-123 -176h-92l-122 176h57l111 -99l111 99h58zM403 126l24 -14q-44 -70 -88.5 -98t-109.5 -28q-90 0 -147 67.5t-57 170.5q0 112 57.5 180.5t151.5 68.5q83 0 128 -50q53 -58 59 -178h-252q3 -42 8 -70.5t17 -57.5t35.5 -44t58.5 -15q32 0 58 15.5t57 52.5z M298 282v21q0 73 -9 92q-12 25 -23.5 36t-31.5 11q-36 0 -53 -36.5t-17 -123.5h134z" />
<glyph unicode="&#x11c;" horiz-adv-x="778" d="M569 738h-57l-112 98l-112 -98h-56l122 176h92zM755 287v-25q-53 -6 -69.5 -27.5t-16.5 -72.5v-118q-49 -29 -124 -46t-153 -17q-154 0 -254.5 96t-100.5 254q0 151 99.5 255.5t248.5 104.5q70 0 155 -35q32 -14 46 -14t23.5 9.5t20.5 36.5h27v-235h-25 q-29 63 -47.5 92.5t-48.5 56.5q-63 56 -138 56q-88 0 -136 -83t-48 -237q0 -157 48 -237q27 -45 63 -66t92 -21q96 0 96 85v89q0 40 -19.5 55t-82.5 19v25h344z" />
<glyph unicode="&#x11d;" horiz-adv-x="500" d="M419 528h-57l-112 98l-112 -98h-56l122 176h92zM254 68h52q81 0 129 -32.5t48 -87.5q0 -71 -68.5 -112.5t-192.5 -41.5q-194 0 -194 92q0 61 96 75q-47 17 -64.5 35t-17.5 47q0 44 29 71.5t90 45.5q-55 15 -89.5 56t-34.5 96q0 73 56.5 117t146.5 44q52 0 112 -22h129 v-53h-80q40 -36 40 -98q0 -94 -92 -132q-24 -10 -41 -12t-86 -2q-30 0 -49.5 -13.5t-19.5 -35.5q0 -21 21 -29t80 -8zM306 312q0 70 -15.5 100t-51.5 30t-50.5 -29t-14.5 -102q0 -70 15 -99.5t51 -29.5t51 29.5t15 100.5zM315 -52h-164q-21 -17 -28 -28t-7 -27 q0 -67 134 -67q72 0 113 18.5t41 47.5q0 56 -89 56z" />
<glyph unicode="&#x11e;" horiz-adv-x="778" d="M501 901h44q-6 -75 -43.5 -119t-108.5 -44q-73 0 -111.5 44.5t-39.5 118.5h44q17 -87 102 -87q47 0 73.5 20t39.5 67zM755 287v-25q-53 -6 -69.5 -27.5t-16.5 -72.5v-118q-49 -29 -124 -46t-153 -17q-154 0 -254.5 96t-100.5 254q0 151 99.5 255.5t248.5 104.5 q70 0 155 -35q32 -14 46 -14t23.5 9.5t20.5 36.5h27v-235h-25q-29 63 -47.5 92.5t-48.5 56.5q-63 56 -138 56q-88 0 -136 -83t-48 -237q0 -157 48 -237q27 -45 63 -66t92 -21q96 0 96 85v89q0 40 -19.5 55t-82.5 19v25h344z" />
<glyph unicode="&#x11f;" horiz-adv-x="500" d="M354 691h44q-6 -75 -43.5 -119t-108.5 -44q-73 0 -111.5 44.5t-39.5 118.5h44q17 -87 102 -87q47 0 73.5 20t39.5 67zM254 68h52q81 0 129 -32.5t48 -87.5q0 -71 -68.5 -112.5t-192.5 -41.5q-194 0 -194 92q0 61 96 75q-47 17 -64.5 35t-17.5 47q0 44 29 71.5t90 45.5 q-55 15 -89.5 56t-34.5 96q0 73 56.5 117t146.5 44q52 0 112 -22h129v-53h-80q40 -36 40 -98q0 -94 -92 -132q-24 -10 -41 -12t-86 -2q-30 0 -49.5 -13.5t-19.5 -35.5q0 -21 21 -29t80 -8zM306 312q0 70 -15.5 100t-51.5 30t-50.5 -29t-14.5 -102q0 -70 15 -99.5t51 -29.5 t51 29.5t15 100.5zM315 -52h-164q-21 -17 -28 -28t-7 -27q0 -67 134 -67q72 0 113 18.5t41 47.5q0 56 -89 56z" />
<glyph unicode="&#x120;" horiz-adv-x="778" d="M465 810q0 -26 -19 -44.5t-47 -18.5q-26 0 -44.5 19t-18.5 46q0 26 19 45t45 19t45.5 -19.5t19.5 -46.5zM755 287v-25q-53 -6 -69.5 -27.5t-16.5 -72.5v-118q-49 -29 -124 -46t-153 -17q-154 0 -254.5 96t-100.5 254q0 151 99.5 255.5t248.5 104.5q70 0 155 -35 q32 -14 46 -14t23.5 9.5t20.5 36.5h27v-235h-25q-29 63 -47.5 92.5t-48.5 56.5q-63 56 -138 56q-88 0 -136 -83t-48 -237q0 -157 48 -237q27 -45 63 -66t92 -21q96 0 96 85v89q0 40 -19.5 55t-82.5 19v25h344z" />
<glyph unicode="&#x121;" horiz-adv-x="500" d="M315 600q0 -26 -19 -44.5t-47 -18.5q-26 0 -44.5 19t-18.5 46q0 26 19 45t45 19t45.5 -19.5t19.5 -46.5zM254 68h52q81 0 129 -32.5t48 -87.5q0 -71 -68.5 -112.5t-192.5 -41.5q-194 0 -194 92q0 61 96 75q-47 17 -64.5 35t-17.5 47q0 44 29 71.5t90 45.5 q-55 15 -89.5 56t-34.5 96q0 73 56.5 117t146.5 44q52 0 112 -22h129v-53h-80q40 -36 40 -98q0 -94 -92 -132q-24 -10 -41 -12t-86 -2q-30 0 -49.5 -13.5t-19.5 -35.5q0 -21 21 -29t80 -8zM306 312q0 70 -15.5 100t-51.5 30t-50.5 -29t-14.5 -102q0 -70 15 -99.5t51 -29.5 t51 29.5t15 100.5zM315 -52h-164q-21 -17 -28 -28t-7 -27q0 -67 134 -67q72 0 113 18.5t41 47.5q0 56 -89 56z" />
<glyph unicode="&#x122;" horiz-adv-x="778" d="M755 287v-25q-53 -6 -69.5 -27.5t-16.5 -72.5v-118q-49 -29 -124 -46t-153 -17q-154 0 -254.5 96t-100.5 254q0 151 99.5 255.5t248.5 104.5q70 0 155 -35q32 -14 46 -14t23.5 9.5t20.5 36.5h27v-235h-25q-29 63 -47.5 92.5t-48.5 56.5q-63 56 -138 56q-88 0 -136 -83 t-48 -237q0 -157 48 -237q27 -45 63 -66t92 -21q96 0 96 85v89q0 40 -19.5 55t-82.5 19v25h344zM317 -378l-11 22q109 76 109 133q0 21 -19 21q-3 0 -11 -1t-13 -1q-32 0 -52.5 21t-20.5 55q0 39 23 62t61 23q47 0 73.5 -31t26.5 -85q0 -132 -166 -219z" />
<glyph unicode="&#x123;" horiz-adv-x="500" d="M312 863l11 -22q-109 -76 -109 -133q0 -21 19 -21q3 0 11 1t13 1q32 0 52.5 -21t20.5 -55q0 -39 -23 -62t-61 -23q-47 0 -73.5 31t-26.5 85q0 132 166 219zM254 68h52q81 0 129 -32.5t48 -87.5q0 -71 -68.5 -112.5t-192.5 -41.5q-194 0 -194 92q0 61 96 75 q-47 17 -64.5 35t-17.5 47q0 44 29 71.5t90 45.5q-55 15 -89.5 56t-34.5 96q0 73 56.5 117t146.5 44q52 0 112 -22h129v-53h-80q40 -36 40 -98q0 -94 -92 -132q-24 -10 -41 -12t-86 -2q-30 0 -49.5 -13.5t-19.5 -35.5q0 -21 21 -29t80 -8zM306 312q0 70 -15.5 100t-51.5 30 t-50.5 -29t-14.5 -102q0 -70 15 -99.5t51 -29.5t51 29.5t15 100.5zM315 -52h-164q-21 -17 -28 -28t-7 -27q0 -67 134 -67q72 0 113 18.5t41 47.5q0 56 -89 56z" />
<glyph unicode="&#x124;" horiz-adv-x="778" d="M557 738h-57l-112 98l-112 -98h-56l122 176h92zM759 0h-339v25q54 6 71.5 20.5t17.5 52.5v228h-241v-228q0 -40 17 -53.5t72 -19.5v-25h-336v25q53 7 69 20.5t16 52.5v479q0 41 -17 55t-68 19v25h336v-25q-53 -4 -71 -18.5t-18 -55.5v-204h241v204q0 41 -18 55.5 t-71 18.5v25h339v-25q-51 -4 -69.5 -19t-18.5 -55v-479q0 -39 16.5 -52.5t71.5 -20.5v-25z" />
<glyph unicode="&#x125;" horiz-adv-x="556" d="M419 738h-57l-112 98l-112 -98h-56l122 176h92zM534 0h-234v24q25 3 35.5 16.5t10.5 44.5v224q0 54 -11 75.5t-40 21.5q-36 0 -70 -34q-17 -17 -17 -24v-263q0 -31 10 -44t38 -17v-24h-240v24q36 7 44.5 16t8.5 49v502q0 35 -9 44.5t-45 16.5v24h193v-280q65 77 147 77 q60 0 95 -38t35 -98v-250q0 -34 11.5 -48.5t37.5 -14.5v-24z" />
<glyph unicode="&#x126;" horiz-adv-x="778" d="M759 0h-339v25q54 6 71.5 20.5t17.5 52.5v228h-241v-228q0 -40 17 -53.5t72 -19.5v-25h-336v25q53 7 69 20.5t16 52.5v395h-85v47h85v37q0 41 -17 55t-68 19v25h336v-25q-53 -4 -71 -18.5t-18 -55.5v-37h241v37q0 41 -18 55.5t-71 18.5v25h339v-25q-51 -4 -69.5 -19 t-18.5 -55v-37h88v-47h-88v-395q0 -39 16.5 -52.5t71.5 -20.5v-25zM509 373v120h-241v-120h241z" />
<glyph unicode="&#x127;" horiz-adv-x="556" d="M534 0h-234v24q25 3 35.5 16.5t10.5 44.5v224q0 54 -11 75.5t-40 21.5q-36 0 -70 -34q-17 -17 -17 -24v-263q0 -31 10 -44t38 -17v-24h-240v24q36 7 44.5 16t8.5 49v425h-54v44h54v33q0 35 -9 44.5t-45 16.5v24h193v-118h158v-44h-158v-118q65 77 147 77q60 0 95 -38 t35 -98v-250q0 -34 11.5 -48.5t37.5 -14.5v-24z" />
<glyph unicode="&#x128;" horiz-adv-x="389" d="M336 884h43q-34 -127 -116 -127q-32 0 -65 14l-29 13q-48 22 -64 22q-19 0 -32.5 -13t-16.5 -34h-42q14 65 42 95t74 30q31 0 73 -19l40 -18q27 -12 39 -12q20 0 32 11t22 38zM370 0h-350v25q57 5 75 20t18 61v470q0 41 -19 56t-74 19v25h350v-25q-56 -2 -75.5 -17.5 t-19.5 -57.5v-470q0 -48 18.5 -62.5t76.5 -18.5v-25z" />
<glyph unicode="&#x129;" horiz-adv-x="278" d="M275 674h43q-34 -127 -116 -127q-32 0 -65 14l-29 13q-48 22 -64 22q-19 0 -32.5 -13t-16.5 -34h-42q14 65 42 95t74 30q31 0 73 -19l40 -18q27 -12 39 -12q20 0 32 11t22 38zM256 0h-240v24q35 8 44 19t9 45v285q0 33 -10.5 45t-43.5 19v24h193v-376q0 -32 10.5 -44.5 t37.5 -16.5v-24z" />
<glyph unicode="&#x12a;" horiz-adv-x="389" d="M359 738h-330v72h330v-72zM370 0h-350v25q57 5 75 20t18 61v470q0 41 -19 56t-74 19v25h350v-25q-56 -2 -75.5 -17.5t-19.5 -57.5v-470q0 -48 18.5 -62.5t76.5 -18.5v-25z" />
<glyph unicode="&#x12b;" horiz-adv-x="278" d="M256 0h-240v24q35 8 44 19t9 45v285q0 33 -10.5 45t-43.5 19v24h193v-376q0 -32 10.5 -44.5t37.5 -16.5v-24zM305 528h-330v72h330v-72z" />
<glyph unicode="&#x12c;" horiz-adv-x="389" d="M298 900h44q-6 -75 -43.5 -119t-108.5 -44q-73 0 -111.5 44.5t-39.5 118.5h44q17 -87 102 -87q47 0 73.5 20t39.5 67zM370 0h-350v25q57 5 75 20t18 61v470q0 41 -19 56t-74 19v25h350v-25q-56 -2 -75.5 -17.5t-19.5 -57.5v-470q0 -48 18.5 -62.5t76.5 -18.5v-25z" />
<glyph unicode="&#x12d;" horiz-adv-x="278" d="M248 691h44q-6 -75 -43.5 -119t-108.5 -44q-73 0 -111.5 44.5t-39.5 118.5h44q17 -87 102 -87q47 0 73.5 20t39.5 67zM256 0h-240v24q35 8 44 19t9 45v285q0 33 -10.5 45t-43.5 19v24h193v-376q0 -32 10.5 -44.5t37.5 -16.5v-24z" />
<glyph unicode="&#x12e;" horiz-adv-x="389" d="M228 0h-208v25q57 5 75 20t18 61v470q0 41 -19 56t-74 19v25h350v-25q-56 -2 -75.5 -17.5t-19.5 -57.5v-470q0 -48 18.5 -62.5t76.5 -18.5v-25h-112q-1 -2 -3 -8q-11 -39 -11 -64q0 -35 14 -49.5t47 -14.5q22 0 48 13q4 2 13 8l23 -16q-18 -34 -54 -54t-72 -20 q-47 0 -75 21.5t-28 56.5q0 28 11.5 51.5t42.5 59.5q4 6 8 10z" />
<glyph unicode="&#x12f;" horiz-adv-x="278" d="M160 0h-144v24q35 8 44 19t9 45v285q0 33 -10.5 45t-43.5 19v24h193v-376q0 -32 10.5 -44.5t37.5 -16.5v-24h-66q-1 -2 -3 -8q-11 -39 -11 -64q0 -35 14 -49.5t47 -14.5q22 0 48 13q4 2 13 8l23 -16q-18 -34 -54 -54t-72 -20q-47 0 -75 21.5t-28 56.5q0 28 11.5 51.5 t42.5 59.5q4 6 8 10zM215 613q0 -33 -22.5 -55t-55.5 -22t-55 22t-22 55t22.5 55.5t56.5 22.5q31 0 53.5 -23t22.5 -55z" />
<glyph unicode="&#x130;" horiz-adv-x="389" d="M259 810q0 -26 -19 -44.5t-47 -18.5q-26 0 -44.5 19t-18.5 46q0 26 19 45t45 19t45.5 -19.5t19.5 -46.5zM370 0h-350v25q57 5 75 20t18 61v470q0 41 -19 56t-74 19v25h350v-25q-56 -2 -75.5 -17.5t-19.5 -57.5v-470q0 -48 18.5 -62.5t76.5 -18.5v-25z" />
<glyph unicode="&#x131;" horiz-adv-x="278" d="M256 0h-240v24q35 8 44 19t9 45v285q0 33 -10.5 45t-43.5 19v24h193v-376q0 -32 10.5 -44.5t37.5 -16.5v-24z" />
<glyph unicode="&#x134;" horiz-adv-x="500" d="M479 738h-57l-112 98l-112 -98h-56l122 176h92zM478 676v-25q-55 -4 -71.5 -22t-16.5 -73v-430q0 -222 -212 -222q-74 0 -108 23q-29 20 -48 50t-19 60q0 28 21.5 51t49.5 23t50 -23t22 -53q0 -15 -13.5 -34t-13.5 -32q0 -32 45 -32q34 0 49 21.5t15 68.5v550 q0 43 -20 57.5t-81 16.5v25h351z" />
<glyph unicode="&#x135;" horiz-adv-x="333" d="M335 528h-57l-112 98l-112 -98h-56l122 176h92zM260 461v-459q0 -84 -27 -129q-43 -76 -150 -76q-62 0 -101 28t-39 72q0 27 17 44t45 17q25 0 42 -15.5t17 -38.5q0 -16 -14 -37q-9 -15 -9 -22q0 -17 32 -17q25 0 36.5 18t11.5 58v474q0 32 -12.5 44t-50.5 15v24h202z " />
<glyph unicode="&#x136;" horiz-adv-x="778" d="M769 0h-334v25q47 1 62 6t15 15q0 13 -25 45l-181 225l-27 -25v-196q0 -37 16.5 -50t70.5 -20v-25h-336v25q55 5 71 19t16 57v472q0 46 -17 60.5t-70 17.5v25h337v-25q-54 -4 -71 -20.5t-17 -63.5v-223l212 215q24 24 32 35t8 23q0 15 -10.5 22t-37.5 9l-35 3v25h289v-25 q-78 -9 -133 -46.5t-189 -180.5l305 -378q16 -20 49 -21v-25zM291 -378l-11 22q109 76 109 133q0 21 -19 21q-3 0 -11 -1t-13 -1q-32 0 -52.5 21t-20.5 55q0 39 23 62t61 23q47 0 73.5 -31t26.5 -85q0 -132 -166 -219z" />
<glyph unicode="&#x137;" horiz-adv-x="556" d="M543 0h-234v24q42 2 42 19q0 12 -24 45l-95 134l-23 -24v-114q0 -35 8.5 -45t43.5 -15v-24h-239v24q48 4 48 60v510q0 54 -48 58v24h187v-431l128 128q21 21 21 38q0 18 -35 23l-24 4v23h214v-23q-47 -6 -80.5 -29t-108.5 -102l194 -268q11 -15 25 -15v-24zM202 -378 l-11 22q109 76 109 133q0 21 -19 21q-3 0 -11 -1t-13 -1q-32 0 -52.5 21t-20.5 55q0 39 23 62t61 23q47 0 73.5 -31t26.5 -85q0 -132 -166 -219z" />
<glyph unicode="&#x138;" horiz-adv-x="600" d="M627 0h-168q-41 5 -89 76q-11 17 -26 46.5t-33 56.5q-25 39 -71 54q-5 -1 -27 -1v-145q0 -20 1 -28t5.5 -17.5t15 -13t29.5 -4.5v-24h-245v24q27 7 39 19t12 43v305q0 31 -12 42t-39 13v24h245v-24q-31 -5 -41 -14.5t-10 -41.5v-108q19 0 41 4q78 22 92 31q40 29 64 88 q15 37 36.5 51t62.5 14q32 0 56 -16t24 -40q0 -19 -14 -30.5t-35 -11.5q-19 0 -31 10t-19 20t-16 10q-12 0 -18 -6t-12 -22q-25 -73 -77 -112q22 -8 42 -34q12 -15 45.5 -70.5t41.5 -67.5q25 -37 52.5 -54t78.5 -22v-24z" />
<glyph unicode="&#x139;" horiz-adv-x="667" d="M638 227l-42 -227h-577v25q55 7 70.5 20t15.5 53v478q0 42 -17.5 57t-68.5 18v25h348v-24q-65 -3 -82.5 -20t-17.5 -79v-464q0 -33 18.5 -45.5t66.5 -12.5q109 0 170 55q42 39 87 141h29zM158 738l137 157q25 28 53 28q22 0 35 -12t13 -32q0 -17 -8 -27.5t-32 -25.5 l-142 -88h-56z" />
<glyph unicode="&#x13a;" horiz-adv-x="278" d="M22 738l137 157q25 28 53 28q22 0 35 -12t13 -32q0 -17 -8 -27.5t-32 -25.5l-142 -88h-56zM256 0h-240v24q51 4 51 63v500q0 61 -52 65v24h191v-589q0 -33 12 -47.5t38 -15.5v-24z" />
<glyph unicode="&#x13b;" horiz-adv-x="667" d="M638 227l-42 -227h-577v25q55 7 70.5 20t15.5 53v478q0 42 -17.5 57t-68.5 18v25h348v-24q-65 -3 -82.5 -20t-17.5 -79v-464q0 -33 18.5 -45.5t66.5 -12.5q109 0 170 55q42 39 87 141h29zM256 -378l-11 22q109 76 109 133q0 21 -19 21q-3 0 -11 -1t-13 -1q-32 0 -52.5 21 t-20.5 55q0 39 23 62t61 23q47 0 73.5 -31t26.5 -85q0 -132 -166 -219z" />
<glyph unicode="&#x13c;" horiz-adv-x="278" d="M256 0h-240v24q51 4 51 63v500q0 61 -52 65v24h191v-589q0 -33 12 -47.5t38 -15.5v-24zM66 -378l-11 22q109 76 109 133q0 21 -19 21q-3 0 -11 -1t-13 -1q-32 0 -52.5 21t-20.5 55q0 39 23 62t61 23q47 0 73.5 -31t26.5 -85q0 -132 -166 -219z" />
<glyph unicode="&#x13d;" horiz-adv-x="667" d="M638 227l-42 -227h-577v25q55 7 70.5 20t15.5 53v478q0 42 -17.5 57t-68.5 18v25h348v-24q-65 -3 -82.5 -20t-17.5 -79v-464q0 -33 18.5 -45.5t66.5 -12.5q109 0 170 55q42 39 87 141h29zM447 356l-11 22q109 76 109 133q0 21 -19 21q-3 0 -11 -1t-13 -1q-32 0 -52.5 21 t-20.5 55q0 39 23 62t61 23q47 0 73.5 -31t26.5 -85q0 -132 -166 -219z" />
<glyph unicode="&#x13e;" horiz-adv-x="457" d="M256 0h-240v24q51 4 51 63v500q0 61 -52 65v24h191v-589q0 -33 12 -47.5t38 -15.5v-24zM276 374l-11 22q109 76 109 133q0 21 -19 21q-3 0 -11 -1t-13 -1q-32 0 -52.5 21t-20.5 55q0 39 23 62t61 23q47 0 73.5 -31t26.5 -85q0 -132 -166 -219z" />
<glyph unicode="&#x13f;" horiz-adv-x="667" d="M638 227l-42 -227h-577v25q55 7 70.5 20t15.5 53v478q0 42 -17.5 57t-68.5 18v25h348v-24q-65 -3 -82.5 -20t-17.5 -79v-464q0 -33 18.5 -45.5t66.5 -12.5q109 0 170 55q42 39 87 141h29zM535 323q0 -35 -24.5 -59.5t-60.5 -24.5t-60 24t-24 60q0 35 25 60t60 25 q34 0 59 -25t25 -60z" />
<glyph unicode="&#x140;" horiz-adv-x="414" d="M441 340q0 -35 -24.5 -59.5t-60.5 -24.5t-60 24t-24 60q0 35 25 60t60 25q34 0 59 -25t25 -60zM256 0h-240v24q51 4 51 63v500q0 61 -52 65v24h191v-589q0 -33 12 -47.5t38 -15.5v-24z" />
<glyph unicode="&#x141;" horiz-adv-x="667" d="M638 228l-42 -228h-577v25q55 4 70.5 18.5t15.5 56.5v187l-81 -49v61l81 49v225q0 45 -17.5 60t-69.5 18v25h349v-25q-61 -3 -80.5 -22t-19.5 -77v-109l123 76v-61l-123 -76v-292q0 -33 16 -46t63 -13q122 0 177 52q34 32 86 145h29z" />
<glyph unicode="&#x142;" horiz-adv-x="278" d="M303 481l-97 -80v-312q0 -63 50 -65v-24h-240v24q51 4 51 65v223l-89 -72v50l89 72v229q0 57 -52 61v24h191v-225l97 80v-50z" />
<glyph unicode="&#x143;" horiz-adv-x="722" d="M294 738l137 157q25 28 53 28q22 0 35 -12t13 -32q0 -17 -8 -27.5t-32 -25.5l-142 -88h-56zM701 676v-25q-50 -8 -64 -22.5t-14 -60.5v-586h-28l-447 545v-396q0 -58 18 -78.5t76 -27.5v-25h-226v25q55 7 71.5 22.5t16.5 61.5v470q-52 72 -85 72v25h211l349 -430v299 q0 60 -18 80.5t-74 25.5v25h214z" />
<glyph unicode="&#x144;" horiz-adv-x="556" d="M212 528l137 157q25 28 53 28q22 0 35 -12t13 -32q0 -17 -8 -27.5t-32 -25.5l-142 -88h-56zM539 0h-234v24q25 3 35.5 16.5t10.5 43.5v237q0 85 -51 85q-36 0 -70 -34q-17 -17 -17 -24v-264q0 -29 10.5 -42.5t37.5 -17.5v-24h-240v24q33 7 43 19t10 44v289q0 32 -10 44 t-43 17v24h191v-75h1q49 87 142 87q62 0 98.5 -38.5t36.5 -103.5v-247q0 -34 10 -46t39 -14v-24z" />
<glyph unicode="&#x145;" horiz-adv-x="722" d="M701 676v-25q-50 -8 -64 -22.5t-14 -60.5v-586h-28l-447 545v-396q0 -58 18 -78.5t76 -27.5v-25h-226v25q55 7 71.5 22.5t16.5 61.5v470q-52 72 -85 72v25h211l349 -430v299q0 60 -18 80.5t-74 25.5v25h214zM286 -378l-11 22q109 76 109 133q0 21 -19 21q-3 0 -11 -1 t-13 -1q-32 0 -52.5 21t-20.5 55q0 39 23 62t61 23q47 0 73.5 -31t26.5 -85q0 -132 -166 -219z" />
<glyph unicode="&#x146;" horiz-adv-x="556" d="M539 0h-234v24q25 3 35.5 16.5t10.5 43.5v237q0 85 -51 85q-36 0 -70 -34q-17 -17 -17 -24v-264q0 -29 10.5 -42.5t37.5 -17.5v-24h-240v24q33 7 43 19t10 44v289q0 32 -10 44t-43 17v24h191v-75h1q49 87 142 87q62 0 98.5 -38.5t36.5 -103.5v-247q0 -34 10 -46t39 -14 v-24zM206 -378l-11 22q109 76 109 133q0 21 -19 21q-3 0 -11 -1t-13 -1q-32 0 -52.5 21t-20.5 55q0 39 23 62t61 23q47 0 73.5 -31t26.5 -85q0 -132 -166 -219z" />
<glyph unicode="&#x147;" horiz-adv-x="722" d="M535 914l-123 -176h-92l-122 176h57l111 -99l111 99h58zM701 676v-25q-50 -8 -64 -22.5t-14 -60.5v-586h-28l-447 545v-396q0 -58 18 -78.5t76 -27.5v-25h-226v25q55 7 71.5 22.5t16.5 61.5v470q-52 72 -85 72v25h211l349 -430v299q0 60 -18 80.5t-74 25.5v25h214z" />
<glyph unicode="&#x148;" horiz-adv-x="556" d="M450 704l-123 -176h-92l-122 176h57l111 -99l111 99h58zM539 0h-234v24q25 3 35.5 16.5t10.5 43.5v237q0 85 -51 85q-36 0 -70 -34q-17 -17 -17 -24v-264q0 -29 10.5 -42.5t37.5 -17.5v-24h-240v24q33 7 43 19t10 44v289q0 32 -10 44t-43 17v24h191v-75h1q49 87 142 87 q62 0 98.5 -38.5t36.5 -103.5v-247q0 -34 10 -46t39 -14v-24z" />
<glyph unicode="&#x149;" horiz-adv-x="705" d="M693 0h-234v24q25 3 35.5 16.5t10.5 43.5v237q0 85 -51 85q-36 0 -70 -34q-17 -17 -17 -24v-264q0 -29 10.5 -42.5t37.5 -17.5v-24h-240v24q33 7 43 19t10 44v289q0 32 -10 44t-43 17v24h191v-75h1q49 87 142 87q62 0 98.5 -38.5t36.5 -103.5v-247q0 -34 10 -46t39 -14 v-24zM31 374l-11 22q109 76 109 133q0 21 -19 21q-3 0 -11 -1t-13 -1q-32 0 -52.5 21t-20.5 55q0 39 23 62t61 23q47 0 73.5 -31t26.5 -85q0 -132 -166 -219z" />
<glyph unicode="&#x14a;" horiz-adv-x="732" d="M14 676h322q179 0 277.5 -96.5t98.5 -260.5q0 -107 -33.5 -201t-98 -154t-145.5 -60q-52 0 -93 37t-41 84q0 31 21.5 61.5t53.5 30.5q28 0 48 -22.5t20 -52.5q0 -23 -13.5 -39t-13.5 -27q0 -16 11 -27.5t31 -11.5q41 0 61.5 95t20.5 223q0 85 -16.5 165.5t-39.5 120.5 q-58 101 -163 101q-63 0 -63 -44v-598h-245v25q43 1 63 19t20 54v486q0 34 -17.5 48t-65.5 19v25z" />
<glyph unicode="&#x14b;" horiz-adv-x="556" d="M490 331v-331q0 -84 -27 -129q-43 -76 -150 -76q-62 0 -101 28t-39 72q0 27 17 44t45 17q25 0 42 -15.5t17 -38.5q0 -16 -14 -37q-9 -15 -9 -22q0 -17 32 -17q25 0 36.5 18t11.5 58v419q0 85 -51 85q-36 0 -70 -34q-17 -17 -17 -24v-264q0 -29 10.5 -42.5t37.5 -17.5v-24 h-240v24q33 7 43 19t10 44v289q0 32 -10 44t-43 17v24h191v-75h1q49 87 142 87q62 0 98.5 -38.5t36.5 -103.5z" />
<glyph unicode="&#x14c;" horiz-adv-x="778" d="M550 738h-330v72h330v-72zM743 335q0 -156 -99.5 -255t-255.5 -99q-155 0 -254 99t-99 254q0 159 101 258t258 99q151 0 250 -100.5t99 -255.5zM566 328q0 160 -46.5 245t-134.5 85q-83 0 -128 -85.5t-45 -242.5t46 -236.5t132 -79.5t131 80t45 234z" />
<glyph unicode="&#x14d;" horiz-adv-x="500" d="M415 528h-330v72h330v-72zM476 229q0 -105 -64.5 -174t-161.5 -69q-95 0 -160 68.5t-65 173.5q0 109 64.5 177t164.5 68q95 0 158.5 -69t63.5 -175zM329 218q0 128 -17 176t-61 48q-46 0 -62.5 -47.5t-16.5 -176.5q0 -109 18 -155t61 -46t60.5 44.5t17.5 156.5z" />
<glyph unicode="&#x14e;" horiz-adv-x="778" d="M498 901h44q-6 -75 -43.5 -119t-108.5 -44q-73 0 -111.5 44.5t-39.5 118.5h44q17 -87 102 -87q47 0 73.5 20t39.5 67zM743 335q0 -156 -99.5 -255t-255.5 -99q-155 0 -254 99t-99 254q0 159 101 258t258 99q151 0 250 -100.5t99 -255.5zM566 328q0 160 -46.5 245 t-134.5 85q-83 0 -128 -85.5t-45 -242.5t46 -236.5t132 -79.5t131 80t45 234z" />
<glyph unicode="&#x14f;" horiz-adv-x="500" d="M358 691h44q-6 -75 -43.5 -119t-108.5 -44q-73 0 -111.5 44.5t-39.5 118.5h44q17 -87 102 -87q47 0 73.5 20t39.5 67zM476 229q0 -105 -64.5 -174t-161.5 -69q-95 0 -160 68.5t-65 173.5q0 109 64.5 177t164.5 68q95 0 158.5 -69t63.5 -175zM329 218q0 128 -17 176 t-61 48q-46 0 -62.5 -47.5t-16.5 -176.5q0 -109 18 -155t61 -46t60.5 44.5t17.5 156.5z" />
<glyph unicode="&#x150;" horiz-adv-x="778" d="M370 738l136 157q25 28 54 28q22 0 35 -12t13 -32q0 -17 -8 -28.5t-32 -26.5l-141 -86h-57zM170 738l136 157q25 28 54 28q22 0 35 -12t13 -32q0 -17 -8 -28.5t-32 -26.5l-141 -86h-57zM743 335q0 -156 -99.5 -255t-255.5 -99q-155 0 -254 99t-99 254q0 159 101 258 t258 99q151 0 250 -100.5t99 -255.5zM566 328q0 160 -46.5 245t-134.5 85q-83 0 -128 -85.5t-45 -242.5t46 -236.5t132 -79.5t131 80t45 234z" />
<glyph unicode="&#x151;" horiz-adv-x="500" d="M238 528l136 157q25 28 54 28q22 0 35 -12t13 -32q0 -17 -8 -28.5t-32 -26.5l-141 -86h-57zM38 528l136 157q25 28 54 28q22 0 35 -12t13 -32q0 -17 -8 -28.5t-32 -26.5l-141 -86h-57zM476 229q0 -105 -64.5 -174t-161.5 -69q-95 0 -160 68.5t-65 173.5q0 109 64.5 177 t164.5 68q95 0 158.5 -69t63.5 -175zM329 218q0 128 -17 176t-61 48q-46 0 -62.5 -47.5t-16.5 -176.5q0 -109 18 -155t61 -46t60.5 44.5t17.5 156.5z" />
<glyph unicode="&#x152;" horiz-adv-x="1000" d="M981 211l-42 -211h-430q-71 0 -107 -3q-28 -2 -43 -2q-140 0 -226 72q-53 45 -82 114.5t-29 152.5q0 92 36 167.5t101 121.5q87 61 202 61q4 0 25.5 -2t58.5 -4t78 -2h417v-201h-26q-11 60 -26.5 89.5t-46.5 48.5q-47 28 -161 28q-30 0 -41.5 -5.5t-11.5 -20.5v-249 q80 2 105.5 27.5t45.5 120.5h23v-338h-23q-11 89 -41.5 121t-109.5 36v-250q0 -29 14.5 -38.5t57.5 -9.5q107 0 168 50q26 22 44.5 48.5t42.5 77.5h27zM472 212v291q0 92 -18 119q-21 30 -77 30q-185 0 -185 -332q0 -154 40 -224q39 -69 134 -69q63 0 86 32q12 16 16 47 t4 106z" />
<glyph unicode="&#x153;" horiz-adv-x="722" d="M676 125l20 -16q-49 -70 -92 -96.5t-106 -26.5q-73 0 -115 48q-56 -48 -138 -48q-99 0 -161 67.5t-62 175.5q0 107 63.5 175.5t162.5 68.5q76 0 125 -49q36 28 63.5 38.5t65.5 10.5q114 0 162 -92q24 -45 29 -136h-249v-20q0 -167 113 -167q35 0 59.5 14t59.5 53z M571 282l-2 56q-2 56 -16 81t-44 25q-65 0 -65 -108v-54h127zM308 149v162q0 72 -16 102.5t-53 30.5q-41 0 -56.5 -41.5t-15.5 -153.5q0 -132 16 -182.5t59 -50.5q34 0 50 32t16 101z" />
<glyph unicode="&#x154;" horiz-adv-x="722" d="M251 738l137 157q25 28 53 28q22 0 35 -12t13 -32q0 -17 -8 -27.5t-32 -25.5l-142 -88h-56zM716 0h-205l-207 313h-28v-196q0 -54 14.5 -69t73.5 -23v-25h-338v25q59 7 73.5 22t14.5 73v431q0 59 -16.5 77.5t-71.5 22.5v25h308q296 0 296 -172q0 -76 -45 -118 q-42 -38 -112 -57l199 -282q15 -22 44 -22v-25zM276 597v-252q103 1 143 31t40 118q0 79 -30 113.5t-100 34.5q-29 0 -41 -10t-12 -35z" />
<glyph unicode="&#x155;" horiz-adv-x="444" d="M83 528l137 157q25 28 53 28q22 0 35 -12t13 -32q0 -17 -8 -27.5t-32 -25.5l-142 -88h-56zM218 461v-82q35 51 66 72.5t69 21.5q35 0 58 -22.5t23 -56.5q0 -30 -17.5 -49t-45.5 -19q-37 0 -60 38q-14 23 -28 23q-26 0 -43.5 -30t-17.5 -74v-177q0 -48 13.5 -63.5 t58.5 -18.5v-24h-265v24q33 6 43.5 17.5t10.5 42.5v289q0 35 -11 47t-44 17v24h190z" />
<glyph unicode="&#x156;" horiz-adv-x="722" d="M716 0h-205l-207 313h-28v-196q0 -54 14.5 -69t73.5 -23v-25h-338v25q59 7 73.5 22t14.5 73v431q0 59 -16.5 77.5t-71.5 22.5v25h308q296 0 296 -172q0 -76 -45 -118q-42 -38 -112 -57l199 -282q15 -22 44 -22v-25zM276 597v-252q103 1 143 31t40 118q0 79 -30 113.5 t-100 34.5q-29 0 -41 -10t-12 -35zM306 -378l-11 22q109 76 109 133q0 21 -19 21q-3 0 -11 -1t-13 -1q-32 0 -52.5 21t-20.5 55q0 39 23 62t61 23q47 0 73.5 -31t26.5 -85q0 -132 -166 -219z" />
<glyph unicode="&#x157;" horiz-adv-x="444" d="M218 461v-82q35 51 66 72.5t69 21.5q35 0 58 -22.5t23 -56.5q0 -30 -17.5 -49t-45.5 -19q-37 0 -60 38q-14 23 -28 23q-26 0 -43.5 -30t-17.5 -74v-177q0 -48 13.5 -63.5t58.5 -18.5v-24h-265v24q33 6 43.5 17.5t10.5 42.5v289q0 35 -11 47t-44 17v24h190zM128 -378 l-11 22q109 76 109 133q0 21 -19 21q-3 0 -11 -1t-13 -1q-32 0 -52.5 21t-20.5 55q0 39 23 62t61 23q47 0 73.5 -31t26.5 -85q0 -132 -166 -219z" />
<glyph unicode="&#x158;" horiz-adv-x="722" d="M493 914l-123 -176h-92l-122 176h57l111 -99l111 99h58zM716 0h-205l-207 313h-28v-196q0 -54 14.5 -69t73.5 -23v-25h-338v25q59 7 73.5 22t14.5 73v431q0 59 -16.5 77.5t-71.5 22.5v25h308q296 0 296 -172q0 -76 -45 -118q-42 -38 -112 -57l199 -282q15 -22 44 -22v-25 zM276 597v-252q103 1 143 31t40 118q0 79 -30 113.5t-100 34.5q-29 0 -41 -10t-12 -35z" />
<glyph unicode="&#x159;" horiz-adv-x="444" d="M388 704l-123 -176h-92l-122 176h57l111 -99l111 99h58zM218 461v-82q35 51 66 72.5t69 21.5q35 0 58 -22.5t23 -56.5q0 -30 -17.5 -49t-45.5 -19q-37 0 -60 38q-14 23 -28 23q-26 0 -43.5 -30t-17.5 -74v-177q0 -48 13.5 -63.5t58.5 -18.5v-24h-265v24q33 6 43.5 17.5 t10.5 42.5v289q0 35 -11 47t-44 17v24h190z" />
<glyph unicode="&#x15a;" horiz-adv-x="556" d="M484 474h-28q-26 85 -70 130q-54 56 -123 56q-51 0 -80.5 -27.5t-29.5 -71.5q0 -36 21 -59t82 -55q18 -10 68.5 -35.5t79.5 -41.5q49 -27 79 -73.5t30 -102.5q0 -95 -68.5 -154t-179.5 -59q-61 0 -130 24q-31 10 -41 10q-12 0 -19 -7.5t-11 -26.5h-29v248h29 q23 -96 60 -143q57 -72 144 -72q58 0 92 30.5t34 82.5q0 48 -57 88q-25 18 -122 65q-89 43 -130 90t-41 120q0 95 58.5 148t160.5 53q55 0 117 -23q27 -9 42 -9q14 0 20.5 6.5t11.5 26.5h30v-218zM191 738l137 157q25 28 53 28q22 0 35 -12t13 -32q0 -17 -8 -27.5t-32 -25.5 l-142 -88h-56z" />
<glyph unicode="&#x15b;" horiz-adv-x="389" d="M126 528l137 157q25 28 53 28q22 0 35 -12t13 -32q0 -17 -8 -27.5t-32 -25.5l-142 -88h-56zM340 326h-25q-19 56 -47 82q-34 32 -75 32q-28 0 -47 -16.5t-19 -41.5q0 -26 22.5 -46.5t73.5 -41.5q75 -31 106.5 -67t31.5 -89q0 -67 -43 -109.5t-111 -42.5q-52 0 -108 23 q-15 6 -23 6q-11 0 -26 -28h-25v165h28q32 -132 137 -132q34 0 54.5 18t20.5 47q0 24 -22 44.5t-74 42.5q-75 32 -108.5 68.5t-33.5 86.5q0 63 44.5 104.5t112.5 41.5q34 0 78 -15q22 -7 31 -7q17 0 25 20h22v-145z" />
<glyph unicode="&#x15c;" horiz-adv-x="556" d="M484 474h-28q-26 85 -70 130q-54 56 -123 56q-51 0 -80.5 -27.5t-29.5 -71.5q0 -36 21 -59t82 -55q18 -10 68.5 -35.5t79.5 -41.5q49 -27 79 -73.5t30 -102.5q0 -95 -68.5 -154t-179.5 -59q-61 0 -130 24q-31 10 -41 10q-12 0 -19 -7.5t-11 -26.5h-29v248h29 q23 -96 60 -143q57 -72 144 -72q58 0 92 30.5t34 82.5q0 48 -57 88q-25 18 -122 65q-89 43 -130 90t-41 120q0 95 58.5 148t160.5 53q55 0 117 -23q27 -9 42 -9q14 0 20.5 6.5t11.5 26.5h30v-218zM449 738h-57l-112 98l-112 -98h-56l122 176h92z" />
<glyph unicode="&#x15d;" horiz-adv-x="389" d="M359 528h-57l-112 98l-112 -98h-56l122 176h92zM340 326h-25q-19 56 -47 82q-34 32 -75 32q-28 0 -47 -16.5t-19 -41.5q0 -26 22.5 -46.5t73.5 -41.5q75 -31 106.5 -67t31.5 -89q0 -67 -43 -109.5t-111 -42.5q-52 0 -108 23q-15 6 -23 6q-11 0 -26 -28h-25v165h28 q32 -132 137 -132q34 0 54.5 18t20.5 47q0 24 -22 44.5t-74 42.5q-75 32 -108.5 68.5t-33.5 86.5q0 63 44.5 104.5t112.5 41.5q34 0 78 -15q22 -7 31 -7q17 0 25 20h22v-145z" />
<glyph unicode="&#x15e;" horiz-adv-x="556" d="M204 -96l35 78q-48 3 -104 23q-31 10 -41 10q-12 0 -19 -7.5t-11 -26.5h-29v248h29q23 -96 60 -143q57 -72 144 -72q58 0 92 30.5t34 82.5q0 48 -57 88q-25 18 -122 65q-89 43 -130 90t-41 120q0 95 58.5 148t160.5 53q55 0 117 -23q27 -9 42 -9q14 0 20.5 6.5t11.5 26.5 h30v-218h-28q-26 85 -70 130q-54 56 -123 56q-51 0 -80.5 -27.5t-29.5 -71.5q0 -36 21 -59t82 -55q18 -10 68.5 -35.5t79.5 -41.5q49 -27 79 -73.5t30 -102.5q0 -91 -64 -149.5t-168 -62.5l-20 -46q15 5 32 5q42 0 65.5 -18.5t23.5 -51.5q0 -41 -35 -65t-94 -24 q-46 0 -97 18l16 37l6 -2q36 -12 53 -12q58 0 58 41q0 36 -46 36q-13 0 -28 -4z" />
<glyph unicode="&#x15f;" horiz-adv-x="389" d="M234 0l-28 -64q15 5 32 5q42 0 65.5 -18.5t23.5 -51.5q0 -41 -35 -65t-94 -24q-46 0 -97 18l16 37l6 -2q36 -12 53 -12q58 0 58 41q0 36 -46 36q-13 0 -28 -4l-11 8l43 96h42zM340 326h-25q-19 56 -47 82q-34 32 -75 32q-28 0 -47 -16.5t-19 -41.5q0 -26 22.5 -46.5 t73.5 -41.5q75 -31 106.5 -67t31.5 -89q0 -67 -43 -109.5t-111 -42.5q-52 0 -108 23q-15 6 -23 6q-11 0 -26 -28h-25v165h28q32 -132 137 -132q34 0 54.5 18t20.5 47q0 24 -22 44.5t-74 42.5q-75 32 -108.5 68.5t-33.5 86.5q0 63 44.5 104.5t112.5 41.5q34 0 78 -15 q22 -7 31 -7q17 0 25 20h22v-145z" />
<glyph unicode="&#x160;" horiz-adv-x="556" d="M484 474h-28q-26 85 -70 130q-54 56 -123 56q-51 0 -80.5 -27.5t-29.5 -71.5q0 -36 21 -59t82 -55q18 -10 68.5 -35.5t79.5 -41.5q49 -27 79 -73.5t30 -102.5q0 -95 -68.5 -154t-179.5 -59q-61 0 -130 24q-31 10 -41 10q-12 0 -19 -7.5t-11 -26.5h-29v248h29 q23 -96 60 -143q57 -72 144 -72q58 0 92 30.5t34 82.5q0 48 -57 88q-25 18 -122 65q-89 43 -130 90t-41 120q0 95 58.5 148t160.5 53q55 0 117 -23q27 -9 42 -9q14 0 20.5 6.5t11.5 26.5h30v-218zM449 914l-123 -176h-92l-122 176h57l111 -99l111 99h58z" />
<glyph unicode="&#x161;" horiz-adv-x="389" d="M359 704l-123 -176h-92l-122 176h57l111 -99l111 99h58zM340 326h-25q-19 56 -47 82q-34 32 -75 32q-28 0 -47 -16.5t-19 -41.5q0 -26 22.5 -46.5t73.5 -41.5q75 -31 106.5 -67t31.5 -89q0 -67 -43 -109.5t-111 -42.5q-52 0 -108 23q-15 6 -23 6q-11 0 -26 -28h-25v165 h28q32 -132 137 -132q34 0 54.5 18t20.5 47q0 24 -22 44.5t-74 42.5q-75 32 -108.5 68.5t-33.5 86.5q0 63 44.5 104.5t112.5 41.5q34 0 78 -15q22 -7 31 -7q17 0 25 20h22v-145z" />
<glyph unicode="&#x162;" horiz-adv-x="667" d="M317 0h-161v25q64 5 80.5 20.5t16.5 71.5v527q-93 -3 -136.5 -41.5t-56.5 -127.5h-29l3 201h600l2 -201h-29q-13 89 -56.5 127.5t-135.5 41.5v-527q0 -57 16.5 -72t81.5 -20v-25h-154l-28 -64q15 5 32 5q42 0 65.5 -18.5t23.5 -51.5q0 -41 -35 -65t-94 -24q-46 0 -97 18 l16 37l6 -2q36 -12 53 -12q58 0 58 41q0 36 -46 36q-13 0 -28 -4l-11 8z" />
<glyph unicode="&#x163;" horiz-adv-x="333" d="M112 -96l39 87q-37 8 -58 35t-21 69v322h-53v27q49 33 82 71.5t85 114.5h25v-169h95v-44h-95v-298q0 -60 39 -60q29 0 57 53l25 -11q-29 -59 -61 -85t-79 -28l-23 -52q15 5 32 5q42 0 65.5 -18.5t23.5 -51.5q0 -41 -35 -65t-94 -24q-46 0 -97 18l16 37l6 -2 q36 -12 53 -12q58 0 58 41q0 36 -46 36q-13 0 -28 -4z" />
<glyph unicode="&#x164;" horiz-adv-x="667" d="M502 914l-123 -176h-92l-122 176h57l111 -99l111 99h58zM636 475h-29q-13 89 -56.5 127.5t-135.5 41.5v-527q0 -57 16.5 -72t81.5 -20v-25h-357v25q64 5 80.5 20.5t16.5 71.5v527q-93 -3 -136.5 -41.5t-56.5 -127.5h-29l3 201h600z" />
<glyph unicode="&#x165;" horiz-adv-x="415" d="M279 374l-11 22q109 76 109 133q0 21 -19 21q-3 0 -11 -1t-13 -1q-32 0 -52.5 21t-20.5 55q0 39 23 62t61 23q47 0 73.5 -31t26.5 -85q0 -132 -166 -219zM307 112l25 -11q-31 -62 -64.5 -87.5t-83.5 -25.5q-52 0 -82 28.5t-30 78.5v322h-53v27q49 33 82 71.5t85 114.5h25 v-169h60v-44h-60v-298q0 -60 39 -60q29 0 57 53z" />
<glyph unicode="&#x166;" horiz-adv-x="667" d="M636 475h-29q-13 89 -56.5 127.5t-135.5 41.5v-288h110v-34h-110v-205q0 -57 16.5 -72t81.5 -20v-25h-357v25q64 5 80.5 20.5t16.5 71.5v205h-114v34h114v288q-93 -3 -136.5 -41.5t-56.5 -127.5h-29l3 201h600z" />
<glyph unicode="&#x167;" horiz-adv-x="333" d="M307 112l25 -11q-31 -62 -64.5 -87.5t-83.5 -25.5q-52 0 -82 28.5t-30 78.5v134h-55v56h55v132h-53v27q49 33 82 71.5t85 114.5h25v-169h95v-44h-95v-132h92v-56h-92v-110q0 -60 39 -60q29 0 57 53z" />
<glyph unicode="&#x168;" horiz-adv-x="722" d="M530 886h43q-34 -127 -116 -127q-32 0 -65 14l-29 13q-48 22 -64 22q-19 0 -32.5 -13t-16.5 -34h-42q14 65 42 95t74 30q31 0 73 -19l40 -18q27 -12 39 -12q20 0 32 11t22 38zM701 676v-25q-48 -7 -63 -24t-15 -61v-314q0 -156 -76 -216q-68 -55 -184 -55t-185 54 q-43 34 -61.5 79t-18.5 117v324q0 59 -14 75t-68 21v25h336v-25q-60 -5 -77.5 -23t-17.5 -78v-318q0 -202 146 -202q176 0 176 222v300q0 54 -20.5 74t-76.5 25v25h219z" />
<glyph unicode="&#x169;" horiz-adv-x="556" d="M405 674h43q-34 -127 -116 -127q-32 0 -65 14l-29 13q-48 22 -64 22q-19 0 -32.5 -13t-16.5 -34h-42q14 65 42 95t74 30q31 0 73 -19l40 -18q27 -12 39 -12q20 0 32 11t22 38zM538 20l-63 -7q-83 -9 -132 -26v65q-39 -37 -71.5 -51.5t-73.5 -14.5q-63 0 -98 38t-35 107 v241q0 35 -9 47t-40 18v24h188v-334q0 -76 56 -76q39 0 82 47v276q0 34 -12 47t-49 16v24h200v-356q0 -33 12 -47t45 -15v-23z" />
<glyph unicode="&#x16a;" horiz-adv-x="722" d="M515 738h-330v72h330v-72zM701 676v-25q-48 -7 -63 -24t-15 -61v-314q0 -156 -76 -216q-68 -55 -184 -55t-185 54q-43 34 -61.5 79t-18.5 117v324q0 59 -14 75t-68 21v25h336v-25q-60 -5 -77.5 -23t-17.5 -78v-318q0 -202 146 -202q176 0 176 222v300q0 54 -20.5 74 t-76.5 25v25h219z" />
<glyph unicode="&#x16b;" horiz-adv-x="556" d="M425 528h-330v72h330v-72zM538 20l-63 -7q-83 -9 -132 -26v65q-39 -37 -71.5 -51.5t-73.5 -14.5q-63 0 -98 38t-35 107v241q0 35 -9 47t-40 18v24h188v-334q0 -76 56 -76q39 0 82 47v276q0 34 -12 47t-49 16v24h200v-356q0 -33 12 -47t45 -15v-23z" />
<glyph unicode="&#x16c;" horiz-adv-x="722" d="M478 901h44q-6 -75 -43.5 -119t-108.5 -44q-73 0 -111.5 44.5t-39.5 118.5h44q17 -87 102 -87q47 0 73.5 20t39.5 67zM701 676v-25q-48 -7 -63 -24t-15 -61v-314q0 -156 -76 -216q-68 -55 -184 -55t-185 54q-43 34 -61.5 79t-18.5 117v324q0 59 -14 75t-68 21v25h336v-25 q-60 -5 -77.5 -23t-17.5 -78v-318q0 -202 146 -202q176 0 176 222v300q0 54 -20.5 74t-76.5 25v25h219z" />
<glyph unicode="&#x16d;" horiz-adv-x="556" d="M358 691h44q-6 -75 -43.5 -119t-108.5 -44q-73 0 -111.5 44.5t-39.5 118.5h44q17 -87 102 -87q47 0 73.5 20t39.5 67zM538 20l-63 -7q-83 -9 -132 -26v65q-39 -37 -71.5 -51.5t-73.5 -14.5q-63 0 -98 38t-35 107v241q0 35 -9 47t-40 18v24h188v-334q0 -76 56 -76 q39 0 82 47v276q0 34 -12 47t-49 16v24h200v-356q0 -33 12 -47t45 -15v-23z" />
<glyph unicode="&#x16e;" horiz-adv-x="722" d="M473 830q0 -44 -31 -76t-75 -32q-45 0 -76 30.5t-31 75.5q0 44 32 75.5t76 31.5q43 0 74 -31t31 -74zM425 827q0 25 -18 42.5t-43 17.5q-22 0 -39 -17.5t-17 -40.5q0 -24 17 -41.5t40 -17.5q25 0 42.5 16.5t17.5 40.5zM701 676v-25q-48 -7 -63 -24t-15 -61v-314 q0 -156 -76 -216q-68 -55 -184 -55t-185 54q-43 34 -61.5 79t-18.5 117v324q0 59 -14 75t-68 21v25h336v-25q-60 -5 -77.5 -23t-17.5 -78v-318q0 -202 146 -202q176 0 176 222v300q0 54 -20.5 74t-76.5 25v25h219z" />
<glyph unicode="&#x16f;" horiz-adv-x="556" d="M377 635q0 -44 -31 -76t-75 -32q-45 0 -76 30.5t-31 75.5q0 44 32 75.5t76 31.5q43 0 74 -31t31 -74zM329 632q0 25 -18 42.5t-43 17.5q-22 0 -39 -17.5t-17 -40.5q0 -24 17 -41.5t40 -17.5q25 0 42.5 16.5t17.5 40.5zM538 20l-63 -7q-83 -9 -132 -26v65 q-39 -37 -71.5 -51.5t-73.5 -14.5q-63 0 -98 38t-35 107v241q0 35 -9 47t-40 18v24h188v-334q0 -76 56 -76q39 0 82 47v276q0 34 -12 47t-49 16v24h200v-356q0 -33 12 -47t45 -15v-23z" />
<glyph unicode="&#x170;" horiz-adv-x="722" d="M354 738l136 157q25 28 54 28q22 0 35 -12t13 -32q0 -17 -8 -28.5t-32 -26.5l-141 -86h-57zM154 738l136 157q25 28 54 28q22 0 35 -12t13 -32q0 -17 -8 -28.5t-32 -26.5l-141 -86h-57zM701 676v-25q-48 -7 -63 -24t-15 -61v-314q0 -156 -76 -216q-68 -55 -184 -55 t-185 54q-43 34 -61.5 79t-18.5 117v324q0 59 -14 75t-68 21v25h336v-25q-60 -5 -77.5 -23t-17.5 -78v-318q0 -202 146 -202q176 0 176 222v300q0 54 -20.5 74t-76.5 25v25h219z" />
<glyph unicode="&#x171;" horiz-adv-x="556" d="M252 528l136 157q25 28 54 28q22 0 35 -12t13 -32q0 -17 -8 -28.5t-32 -26.5l-141 -86h-57zM52 528l136 157q25 28 54 28q22 0 35 -12t13 -32q0 -17 -8 -28.5t-32 -26.5l-141 -86h-57zM538 20l-63 -7q-83 -9 -132 -26v65q-39 -37 -71.5 -51.5t-73.5 -14.5q-63 0 -98 38 t-35 107v241q0 35 -9 47t-40 18v24h188v-334q0 -76 56 -76q39 0 82 47v276q0 34 -12 47t-49 16v24h200v-356q0 -33 12 -47t45 -15v-23z" />
<glyph unicode="&#x172;" horiz-adv-x="722" d="M423 -16l2 2q-33 -5 -62 -5q-116 0 -185 54q-43 34 -61.5 79t-18.5 117v324q0 59 -14 75t-68 21v25h336v-25q-60 -5 -77.5 -23t-17.5 -78v-318q0 -202 146 -202q176 0 176 222v300q0 54 -20.5 74t-76.5 25v25h219v-25q-48 -7 -63 -24t-15 -61v-314q0 -156 -76 -216 q-30 -25 -82 -41q0 -1 -1 -3q-11 -39 -11 -64q0 -35 14 -49.5t47 -14.5q22 0 48 13q4 2 13 8l23 -16q-18 -34 -54 -54t-72 -20q-47 0 -75 21.5t-28 56.5q0 28 11.5 51.5t42.5 59.5z" />
<glyph unicode="&#x173;" horiz-adv-x="556" d="M524 -115l23 -16q-18 -34 -54 -54t-72 -20q-47 0 -75 21.5t-28 56.5q0 28 11.5 51.5t42.5 59.5q4 6 8 10l6 6l33 12l-6 -20q-11 -39 -11 -64q0 -35 14 -49.5t47 -14.5q22 0 48 13q4 2 13 8zM538 20l-63 -7q-83 -9 -132 -26v65q-39 -37 -71.5 -51.5t-73.5 -14.5 q-63 0 -98 38t-35 107v241q0 35 -9 47t-40 18v24h188v-334q0 -76 56 -76q39 0 82 47v276q0 34 -12 47t-49 16v24h200v-356q0 -33 12 -47t45 -15v-23z" />
<glyph unicode="&#x174;" horiz-adv-x="1000" d="M683 738h-57l-112 98l-112 -98h-56l122 176h92zM981 676v-25q-50 -5 -69 -64l-200 -602h-27l-171 477l-186 -477h-28l-212 602q-13 37 -25 48t-44 16v25h294v-25q-39 -3 -51.5 -11.5t-12.5 -30.5q0 -13 7 -33l120 -364l118 308l-35 96q-12 32 -72 35v25h312v-25l-13 -1 q-33 -2 -46 -10t-13 -26q0 -13 14 -56l108 -336l112 343q7 20 7 42q0 23 -14.5 32.5t-54.5 11.5v25h182z" />
<glyph unicode="&#x175;" horiz-adv-x="722" d="M546 528h-57l-112 98l-112 -98h-56l122 176h92zM707 461v-24q-19 -4 -29.5 -14.5t-20.5 -35.5l-155 -401h-23l-102 310l-125 -310h-24l-148 374q-19 47 -28.5 60t-28.5 17v24h222v-24q-38 -5 -38 -28q0 -12 39 -115l45 -118l68 171q-4 12 -6 19q-14 49 -22 58.5t-37 12.5 v24h234v-24q-28 -2 -38 -7t-10 -17q0 -14 27 -106q23 -79 34 -127l35 94q44 118 44 128q0 17 -10 24.5t-38 10.5v24h135z" />
<glyph unicode="&#x176;" horiz-adv-x="722" d="M543 738h-57l-112 98l-112 -98h-56l122 176h92zM699 676v-25q-49 -7 -68 -39l-191 -311v-178q0 -58 16.5 -75.5t75.5 -22.5v-25h-347v25q60 5 76.5 25t16.5 78v136l-180 328q-31 56 -83 59v25h335v-25l-27 -2q-32 -2 -43 -7.5t-11 -21.5q0 -13 24 -59l120 -232l109 178 q41 68 41 102q0 22 -16.5 30t-67.5 12v25h220z" />
<glyph unicode="&#x177;" horiz-adv-x="500" d="M419 528h-57l-112 98l-112 -98h-56l122 176h92zM482 461v-24q-24 -3 -36 -13.5t-24 -41.5l-148 -398q-45 -121 -77 -156q-31 -33 -84 -33q-43 0 -70 22t-27 57q0 29 17 48t45 19q25 0 42.5 -15t17.5 -37q0 -4 -2 -14l-1 -6q0 -7 5 -12t12 -5q38 0 66 82l18 53l-119 290 q-49 121 -67 146q-8 10 -34 14v24h249v-24l-16 -1q-36 -3 -36 -25q0 -7 20 -58l72 -186l68 188q11 32 11 49q0 18 -11 25t-43 8v24h152z" />
<glyph unicode="&#x178;" horiz-adv-x="722" d="M529 810q0 -26 -19 -44.5t-47 -18.5q-26 0 -44.5 19t-18.5 46q0 26 19 45t45 19t45.5 -19.5t19.5 -46.5zM319 810q0 -26 -18.5 -44.5t-46.5 -18.5q-26 0 -45 19t-19 46q0 26 19.5 45t45.5 19t45 -19.5t19 -46.5zM699 676v-25q-49 -7 -68 -39l-191 -311v-178 q0 -58 16.5 -75.5t75.5 -22.5v-25h-347v25q60 5 76.5 25t16.5 78v136l-180 328q-31 56 -83 59v25h335v-25l-27 -2q-32 -2 -43 -7.5t-11 -21.5q0 -13 24 -59l120 -232l109 178q41 68 41 102q0 22 -16.5 30t-67.5 12v25h220z" />
<glyph unicode="&#x179;" horiz-adv-x="667" d="M634 242l-27 -242h-579v16l382 623l-83 -1q-117 -2 -162 -32.5t-78 -136.5h-28l22 207h523v-16l-379 -625h83q145 0 202 40q27 19 45 45t26.5 47t26.5 75h26zM250 738l137 157q25 28 53 28q22 0 35 -12t13 -32q0 -17 -8 -27.5t-32 -25.5l-142 -88h-56z" />
<glyph unicode="&#x17a;" horiz-adv-x="444" d="M152 528l137 157q25 28 53 28q22 0 35 -12t13 -32q0 -17 -8 -27.5t-32 -25.5l-142 -88h-56zM420 160l-16 -160h-383v25l234 404q-106 0 -139 -19t-52 -91h-26l7 142h371v-26l-231 -403h29q61 0 91.5 12.5t55.5 46.5q20 30 31 69h28z" />
<glyph unicode="&#x17b;" horiz-adv-x="667" d="M634 242l-27 -242h-579v16l382 623l-83 -1q-117 -2 -162 -32.5t-78 -136.5h-28l22 207h523v-16l-379 -625h83q145 0 202 40q27 19 45 45t26.5 47t26.5 75h26zM411 810q0 -26 -19 -44.5t-47 -18.5q-26 0 -44.5 19t-18.5 46q0 26 19 45t45 19t45.5 -19.5t19.5 -46.5z" />
<glyph unicode="&#x17c;" horiz-adv-x="444" d="M303 600q0 -26 -19 -44.5t-47 -18.5q-26 0 -44.5 19t-18.5 46q0 26 19 45t45 19t45.5 -19.5t19.5 -46.5zM420 160l-16 -160h-383v25l234 404q-106 0 -139 -19t-52 -91h-26l7 142h371v-26l-231 -403h29q61 0 91.5 12.5t55.5 46.5q20 30 31 69h28z" />
<glyph unicode="&#x17d;" horiz-adv-x="667" d="M634 242l-27 -242h-579v16l382 623l-83 -1q-117 -2 -162 -32.5t-78 -136.5h-28l22 207h523v-16l-379 -625h83q145 0 202 40q27 19 45 45t26.5 47t26.5 75h26zM519 914l-123 -176h-92l-122 176h57l111 -99l111 99h58z" />
<glyph unicode="&#x17e;" horiz-adv-x="444" d="M401 704l-123 -176h-92l-122 176h57l111 -99l111 99h58zM420 160l-16 -160h-383v25l234 404q-106 0 -139 -19t-52 -91h-26l7 142h371v-26l-231 -403h29q61 0 91.5 12.5t55.5 46.5q20 30 31 69h28z" />
<glyph unicode="&#x17f;" horiz-adv-x="333" d="M30 461h41q0 131 40 179q42 51 135 51q64 0 103.5 -28t39.5 -72q0 -28 -17 -46t-45 -18q-25 0 -42.5 17t-17.5 40q0 20 11 36.5t11 20.5q0 19 -29 19q-27 0 -38.5 -17.5t-11.5 -61.5v-474q0 -50 15 -66t67 -17v-24h-278v24q34 4 45.5 16.5t11.5 46.5v330h-41v44z" />
<glyph unicode="&#x180;" horiz-adv-x="553" d="M206 515v-98q53 56 122 56q83 0 135.5 -65t52.5 -169q0 -113 -63 -183t-163 -70q-70 0 -132 57l-79 -56h-12v528h-95v46h95v39q0 29 -9.5 37t-45.5 15v24h194v-115h129v-46h-129zM206 360v-263q0 -36 19 -57.5t50 -21.5q94 0 94 203q0 198 -93 198q-25 0 -41 -13.5 t-29 -45.5z" />
<glyph unicode="&#x188;" horiz-adv-x="568" d="M417 109l18 -18q-41 -56 -86 -80.5t-105 -24.5q-95 0 -154.5 65t-59.5 171q0 110 68 180.5t169 70.5q39 0 69 -11q0 18 5 38q7 30 36.5 53t64.5 23q54 0 93 -27t39 -74q0 -27 -17 -45t-44 -18q-25 0 -42.5 17t-17.5 40q0 20 11 36.5t11 20.5q0 19 -25 19q-64 0 -64 -55 v-55q35 -31 35 -72q0 -29 -18.5 -46.5t-49.5 -17.5q-26 0 -41 19t-15 54q0 18 -0.5 26t-2.5 18.5t-6 15t-12.5 7.5t-20.5 3q-38 0 -61 -44.5t-23 -124.5q0 -102 37 -161t102 -59q58 0 107 56z" />
<glyph unicode="&#x190;" horiz-adv-x="610" d="M544 174l43 -12q-16 -50 -44 -84t-66 -51t-77.5 -24t-89.5 -7q-48 0 -92.5 9t-86.5 28.5t-67.5 56t-25.5 85.5q0 63 34 112t95 67q-62 33 -90 62.5t-28 82.5q0 47 24 84t63.5 58.5t85 33t92.5 11.5q65 0 110 -15q43 -14 74.5 -43t31.5 -62q0 -29 -14 -48.5t-43 -19.5 q-30 0 -45.5 18t-25.5 62q-12 55 -85 55q-114 0 -114 -159q0 -91 87 -91q25 0 61 5.5t49 5.5q22 0 38 -8t16 -25q0 -20 -26 -33.5t-51 -13.5q-6 0 -44.5 2.5t-46.5 2.5q-45 0 -69 -35t-24 -99q0 -120 137 -120q35 0 55 1t48.5 7t46.5 17t36 32t28 52z" />
<glyph unicode="&#x192;" horiz-adv-x="500" d="M74 440h120q24 140 71 201q50 65 131 65q46 0 74 -21.5t28 -56.5q0 -26 -15.5 -43.5t-38.5 -17.5q-22 0 -37.5 13.5t-15.5 32.5q0 17 13 37q5 8 5 12q0 5 -7 9.5t-16 4.5q-64 0 -64 -146v-90h122v-46h-122q-15 -247 -22 -290q-20 -126 -73.5 -192.5t-133.5 -66.5 q-43 0 -68 21t-25 57q0 26 15 41.5t40 15.5q23 0 38 -13.5t15 -35.5q0 -14 -11 -28q-7 -8 -7 -12q0 -7 6.5 -11.5t15.5 -4.5q28 0 46 31t19 82l13 406h-116v46z" />
<glyph unicode="&#x195;" horiz-adv-x="797" d="M484 337v-211q0 -33 22 -59.5t53 -26.5q67 0 110 61.5t43 131.5q0 46 -14 79.5t-27 45t-33 23.5q-21 13 -30 23t-9 25q0 17 14 26.5t35 9.5q33 0 58 -24.5t37.5 -60.5t18 -68t5.5 -57q0 -106 -61.5 -185.5t-169.5 -79.5q-83 0 -137 36t-54 110v188q0 44 -12 63t-39 19 q-36 0 -70 -34q-17 -17 -17 -24v-263q0 -31 10 -44t38 -17v-24h-240v24q36 7 44.5 16t8.5 49v502q0 35 -9 44.5t-45 16.5v24h193v-280q65 77 147 77q60 0 95 -38t35 -98z" />
<glyph unicode="&#x199;" horiz-adv-x="533" d="M533 0h-234v24q42 2 42 19q0 12 -24 45l-95 134l-23 -24v-114q0 -35 8.5 -45t43.5 -15v-24h-239v24q48 4 48 60v402q0 105 41 154q42 51 135 51q64 0 103 -28t39 -72q0 -28 -17 -46t-44 -18q-25 0 -42.5 17t-17.5 40q0 20 11 36.5t11 20.5q0 19 -29 19q-26 0 -38.5 -16 t-12.5 -55v-344l128 128q21 21 21 38q0 19 -35 23l-24 3v24h214v-24q-48 -6 -81.5 -29t-107.5 -101l194 -268q11 -15 25 -15v-24z" />
<glyph unicode="&#x19a;" horiz-adv-x="291" d="M265 0h-240v24q51 4 51 63v253h-49v46h49v201q0 61 -52 65v24h191v-290h48v-46h-48v-253q0 -33 12 -47.5t38 -15.5v-24z" />
<glyph unicode="&#x19b;" horiz-adv-x="536" d="M526 0h-152v24q32 1 43 8t11 25q0 17 -11 49l-68 188l-72 -186q-20 -51 -20 -58q0 -22 36 -25l16 -1v-24h-249v24q26 4 34 14q18 25 67 146l119 290l-9 24l-192 -157v67l174 140q-26 61 -57 61q-7 0 -12 -5t-5 -12q0 -2 1.5 -9.5t1.5 -10.5q0 -22 -17.5 -37t-42.5 -15 q-28 0 -45 19t-17 48q0 35 27 57t70 22q46 0 74 -24t49 -72l114 96v-68l-93 -76l165 -443q12 -31 24 -41.5t36 -13.5v-24z" />
<glyph unicode="&#x19e;" horiz-adv-x="559" d="M539 -205h-234v24q25 3 35.5 16.5t10.5 43.5v442q0 85 -51 85q-36 0 -70 -34q-17 -17 -17 -24v-264q0 -29 10.5 -42.5t37.5 -17.5v-24h-240v24q33 7 43 19t10 44v289q0 32 -10 44t-43 17v24h191v-75h1q49 87 142 87q62 0 98.5 -38.5t36.5 -103.5v-452q0 -34 10 -46 t39 -14v-24z" />
<glyph unicode="&#x1a0;" horiz-adv-x="778" d="M659 579h-5q89 -99 89 -244q0 -156 -99.5 -255t-255.5 -99q-155 0 -254 99t-99 254q0 159 101 258t258 99q139 0 234 -86q20 -4 30 -4q30 0 43 5t13 21q-41 25 -41 56q0 17 15 33t38 16q26 0 44 -18t18 -49q0 -32 -20 -53t-52 -28q-22 -5 -57 -5zM566 328 q0 160 -46.5 245t-134.5 85q-83 0 -128 -85.5t-45 -242.5t46 -236.5t132 -79.5t131 80t45 234z" />
<glyph unicode="&#x1a1;" horiz-adv-x="554" d="M576 438q0 -32 -20 -53t-52 -28q-22 -5 -56 -5q28 -56 28 -123q0 -105 -64.5 -174t-161.5 -69q-95 0 -160 68.5t-65 173.5q0 109 64.5 177t164.5 68q55 0 102.5 -25.5t75.5 -69.5q16 -4 20 -4q50 0 50 26q-41 25 -41 56q0 17 15 33t38 16q26 0 44 -18t18 -49zM329 218 q0 128 -17 176t-61 48q-46 0 -62.5 -47.5t-16.5 -176.5q0 -109 18 -155t61 -46t60.5 44.5t17.5 156.5z" />
<glyph unicode="&#x1a5;" horiz-adv-x="550" d="M205 568v-173q24 43 54.5 60.5t74.5 17.5q85 0 133 -57.5t48 -166.5q0 -118 -51.5 -190t-140.5 -72q-34 0 -58 12.5t-60 47.5v-126q0 -52 16.5 -76t60.5 -26v-24h-272v24q35 6 45.5 18.5t10.5 44.5v597q0 94 40 143q42 51 135 51q64 0 103 -28t39 -72q0 -28 -17 -46 t-44 -18q-25 0 -42.5 17t-17.5 40q0 20 11 36.5t11 20.5q0 19 -29 19q-27 0 -38.5 -17.5t-11.5 -56.5zM205 346v-239q12 -29 32.5 -47t44.5 -18q85 0 85 192q0 182 -76 182q-37 0 -68 -37q-18 -21 -18 -33z" />
<glyph unicode="&#x1aa;" horiz-adv-x="446" d="M307 424l-40 -429q-3 -34 -3 -96q0 -97 45 -97q9 0 16 4.5t7 9.5q0 3 -9 18.5t-9 29.5q0 19 15 33t38 14q24 0 39 -17.5t15 -43.5q0 -36 -29.5 -57t-81.5 -21q-84 0 -130.5 52.5t-46.5 137.5q0 37 2 59l36 364q2 15 4.5 46t2.5 35q-16 -6 -44 -6q-45 0 -77 33.5t-32 80.5 q0 46 36.5 80.5t86.5 34.5q75 0 118 -58.5t43 -134.5q0 -48 -2 -72zM190 573q0 25 -18 42.5t-42 17.5t-40.5 -17.5t-16.5 -41.5q0 -23 17 -40.5t41 -17.5q25 0 42 17t17 40z" />
<glyph unicode="&#x1ab;" horiz-adv-x="347" d="M331 101v-186q0 -54 -28.5 -93.5t-87.5 -39.5q-62 0 -92.5 27t-30.5 73q0 28 17 46t44 18q25 0 42.5 -17t17.5 -40q0 -20 -11 -36.5t-11 -20.5q0 -19 29 -19q24 0 45.5 19.5t21.5 59.5v141q-38 -45 -104 -45q-52 0 -82 28.5t-30 78.5v322h-53v27q49 33 82 71.5t85 114.5 h25v-169h95v-44h-95v-298q0 -60 39 -60q29 0 57 53z" />
<glyph unicode="&#x1ad;" horiz-adv-x="371" d="M19 417v27q27 17 53 42q2 106 40 154q42 51 135 51q64 0 103 -28t39 -72q0 -28 -17 -46t-44 -18q-25 0 -42.5 17t-17.5 40q0 20 11 36.5t11 20.5q0 19 -29 19q-27 0 -38.5 -17.5t-11.5 -61.5v-120h95v-44h-95v-298q0 -60 39 -60q29 0 57 53l25 -11q-31 -62 -64.5 -87.5 t-83.5 -25.5q-52 0 -82 28.5t-30 78.5v322h-53z" />
<glyph unicode="&#x1af;" horiz-adv-x="796" d="M482 676h222q57 0 58 29q-41 25 -41 56q0 20 15.5 34.5t39.5 14.5t42 -16.5t18 -48.5q0 -63 -80 -83q-2 0 -68 -13q-40 -7 -52.5 -24t-12.5 -59v-314q0 -156 -76 -216q-68 -55 -184 -55t-185 54q-43 34 -61.5 79t-18.5 117v324q0 59 -14 75t-68 21v25h336v-25 q-60 -5 -77.5 -23t-17.5 -78v-318q0 -202 146 -202q176 0 176 222v300q0 54 -20.5 74t-76.5 25v25z" />
<glyph unicode="&#x1b0;" horiz-adv-x="600" d="M551 485l-1 8l-8 5q-5 4 -7.5 5.5t-6.5 5t-6 5.5t-5 6t-4 8.5t-2 10t-1 11.5q0 16 15.5 31t38.5 15q26 0 44 -16.5t18 -47.5q0 -68 -72 -87q-27 -8 -62 -8h-11v-332q0 -33 12 -47t45 -15v-23l-63 -7q-83 -9 -132 -26v65q-39 -37 -71.5 -51.5t-73.5 -14.5q-63 0 -98 38 t-35 107v241q0 35 -9 47t-40 18v24h188v-334q0 -76 56 -76q39 0 82 47v276q0 34 -12 47t-49 16v24h205q24 0 44 6t21 18z" />
<glyph unicode="&#x1ba;" horiz-adv-x="441" d="M415 423l-192 -167q15 4 44 4q67 0 107.5 -35t40.5 -90q0 -31 -20.5 -62.5t-50.5 -48.5l-157 -90q-49 -28 -49 -75q0 -25 23.5 -42t50.5 -17q25 0 45 14t24 36q12 67 67 67q30 0 44.5 -15t14.5 -35q0 -43 -47 -71q-56 -33 -141 -33q-67 0 -113 29q-55 36 -55 100 q0 42 19.5 69.5t58.5 51.5q29 18 126 70q33 19 33 58q0 26 -24.5 40.5t-60.5 14.5q-62 0 -109 -47l-27 24l230 204h-189q-20 0 -44 -23.5t-29 -59.5h-26l34 156h372v-27z" />
<glyph unicode="&#x1bb;" horiz-adv-x="515" d="M492 314h-135q-20 -23 -25 -27l-162 -154h167q56 0 82 14t44 64h25l-46 -211h-415v23l49 53q41 42 57 60l45 52q30 35 51 65t38 61h-235v62h265q13 36 13 71q0 55 -32 91t-87 36q-78 0 -122 -90h-28q67 204 223 204q83 0 132.5 -50t49.5 -133q0 -70 -39 -129h85v-62z" />
<glyph unicode="&#x1be;" horiz-adv-x="527" d="M225 438l2 -47q14 2 31 2q87 0 139 -64.5t52 -145.5q0 -88 -60 -140.5t-154 -52.5q-53 0 -102 27q-55 31 -55 79q0 17 14 32.5t39 15.5q55 0 71 -60l8 -25q2 -8 8 -19.5t15.5 -16t22.5 -4.5q19 0 32.5 16t19.5 41t9 48t3 45q0 57 -36.5 91.5t-83.5 34.5h-32v143h-64v46 h64v57h52l3 -57h111v-46h-109z" />
<glyph unicode="&#x1c0;" horiz-adv-x="186" d="M126 0h-66v740h66v-740z" />
<glyph unicode="&#x1c1;" horiz-adv-x="313" d="M126 0h-66v740h66v-740zM253 0h-66v740h66v-740z" />
<glyph unicode="&#x1c2;" horiz-adv-x="445" d="M405 260h-148v-260h-66v260h-152v66h152v84h-152v66h152v264h66v-264h148v-66h-148v-84h148v-66z" />
<glyph unicode="&#x1c3;" horiz-adv-x="333" d="M182 234h-31q-10 92 -19.5 143t-31.5 123q-18 57 -18 89q0 48 23.5 75t61.5 27q40 0 62 -26.5t22 -73.5q0 -33 -18 -91q-22 -71 -31.5 -122t-19.5 -144zM250 70q0 -36 -24 -59.5t-60 -23.5q-35 0 -60 24.5t-25 59.5q0 37 23.5 61t60.5 24q36 0 60.5 -24.5t24.5 -61.5z " />
<glyph unicode="&#x1f0;" horiz-adv-x="333" d="M335 704l-123 -176h-92l-122 176h57l111 -99l111 99h58zM260 461v-459q0 -84 -27 -129q-43 -76 -150 -76q-62 0 -101 28t-39 72q0 27 17 44t45 17q25 0 42 -15.5t17 -38.5q0 -16 -14 -37q-9 -15 -9 -22q0 -17 32 -17q25 0 36.5 18t11.5 58v474q0 32 -12.5 44t-50.5 15v24 h202z" />
<glyph unicode="&#x1fa;" horiz-adv-x="722" d="M374 651l205 -483q38 -90 58.5 -116.5t51.5 -26.5v-25h-322v25l32 3q25 2 35.5 9.5t10.5 23.5q0 29 -46 136h-225l-13 -34q-31 -80 -31 -97q0 -19 18.5 -28.5t62.5 -12.5v-25h-202v25q35 6 53 28t46 92l205 506q-27 9 -43.5 32.5t-16.5 53.5q0 36 27 63t65 27 q35 0 62 -26.5t27 -62.5q0 -29 -17 -53t-43 -34zM384 236l-101 243l-94 -243h195zM386 736q0 18 -11.5 30.5t-32.5 12.5q-18 0 -29.5 -12.5t-11.5 -29.5t12.5 -30t28.5 -13q18 0 31 12.5t13 29.5zM228 825l146 125q25 22 44 22q32 0 32 -33q0 -7 -2 -12t-9.5 -10.5t-13 -9 t-20.5 -11.5l-132 -71h-45z" />
<glyph unicode="&#x1fb;" horiz-adv-x="500" d="M357 635q0 -44 -31 -76t-75 -32q-45 0 -76 30.5t-31 75.5q0 44 32 75.5t76 31.5q43 0 74 -31t31 -74zM309 632q0 25 -18 42.5t-43 17.5q-22 0 -39 -17.5t-17 -40.5q0 -24 17 -41.5t40 -17.5q25 0 42.5 16.5t17.5 40.5zM122 738l137 157q25 28 53 28q22 0 35 -12t13 -32 q0 -17 -8 -27.5t-32 -25.5l-142 -88h-56zM473 64l15 -21q-53 -57 -112 -57q-37 0 -55.5 15.5t-26.5 53.5q-76 -69 -159 -69q-50 0 -80 26.5t-30 79.5q0 67 67 112q50 33 201 76v68q0 49 -18.5 71t-62.5 22q-28 0 -46.5 -10t-18.5 -27q0 -11 11 -23q19 -23 19 -42 q0 -26 -19 -43t-49 -17q-31 0 -48 18t-17 50q0 59 52.5 92.5t138.5 33.5q92 0 144 -35t52 -99v-261q0 -28 21 -28q7 0 11 4zM293 97v148q-122 -34 -122 -121q0 -32 14.5 -49.5t37.5 -17.5q42 0 70 40z" />
<glyph unicode="&#x1fc;" horiz-adv-x="1000" d="M951 211l-41 -211h-566v25q55 3 71.5 20.5t16.5 73.5v184h-190l-100 -188q-15 -29 -15 -45q0 -21 13.5 -29.5t52.5 -13.5l17 -2v-25h-206v25q30 5 46 23t64 105l220 402q28 50 28 62q0 18 -19 26t-68 11v22h634v-201h-25q-16 80 -44 114q-42 52 -181 52q-40 0 -53.5 -6 t-13.5 -24v-248q88 7 111 29.5t44 119.5h23v-338h-23q-14 93 -42.5 122.5t-112.5 34.5v-243q0 -32 15.5 -43t58.5 -11q126 0 186 61q26 27 48 60.5t28 55.5h23zM432 343v290h-7l-161 -290h168zM476 738l137 157q25 28 53 28q22 0 35 -12t13 -32q0 -17 -8 -27.5t-32 -25.5 l-142 -88h-56z" />
<glyph unicode="&#x1fd;" horiz-adv-x="722" d="M673 129l21 -15q-44 -68 -91.5 -95.5t-118.5 -27.5q-101 0 -147 84h-6q-72 -89 -180 -89q-118 0 -118 108q0 55 59 105q50 42 204 86v75q0 44 -18 62.5t-60 18.5q-28 0 -46.5 -10t-18.5 -25q0 -9 12 -22q17 -20 17 -43q0 -28 -18.5 -45t-48.5 -17q-31 0 -48 19.5 t-17 49.5q0 54 52 89.5t132 35.5q95 0 140 -51q46 51 127 51q56 0 100 -26.5t66 -74.5q21 -45 21 -124h-254v-23q0 -85 26.5 -124.5t88.5 -39.5q69 0 124 68zM567 285v33q0 70 -14 97.5t-49 27.5q-38 0 -54 -37t-16 -121h133zM296 81v167q-66 -24 -92.5 -52.5t-26.5 -75.5 q0 -71 57 -71q31 0 62 32zM255 528l137 157q25 28 53 28q22 0 35 -12t13 -32q0 -17 -8 -27.5t-32 -25.5l-142 -88h-56z" />
<glyph unicode="&#x1fe;" horiz-adv-x="778" d="M685 737l-78 -115q65 -53 93 -106q43 -80 43 -180q0 -156 -99.5 -255.5t-254.5 -99.5q-99 0 -187 49l-71 -104h-50l86 126q-44 38 -66.5 68t-40.5 75q-25 65 -25 140q0 155 100 255.5t255 100.5q94 0 182 -47l63 93h50zM234 151l286 418q-26 48 -56.5 68.5t-74.5 20.5 q-85 0 -131 -85.5t-46 -244.5q0 -99 22 -177zM540 524l-287 -420q26 -48 57.5 -69t78.5 -21q87 0 132 80.5t45 236.5q0 109 -26 193zM270 738l137 157q25 28 53 28q22 0 35 -12t13 -32q0 -17 -8 -27.5t-32 -25.5l-142 -88h-56z" />
<glyph unicode="&#x1ff;" horiz-adv-x="500" d="M461 549l-73 -123q88 -79 88 -197q0 -105 -64 -174t-161 -69q-56 0 -107 27l-63 -105h-47l76 128q-85 79 -85 193q0 105 64.5 174.5t162.5 69.5q53 0 103 -25l60 101h46zM173 140l143 242q-10 33 -24.5 46.5t-39.5 13.5q-47 0 -63.5 -48.5t-16.5 -184.5q0 -49 1 -69z M327 324l-144 -244q18 -63 68 -63q43 0 60.5 44.5t17.5 155.5q0 60 -2 107zM131 528l137 157q25 28 53 28q22 0 35 -12t13 -32q0 -17 -8 -27.5t-32 -25.5l-142 -88h-56z" />
<glyph unicode="&#x237;" horiz-adv-x="333" d="M260 461v-459q0 -84 -27 -129q-43 -76 -150 -76q-62 0 -101 28t-39 72q0 27 17 44t45 17q25 0 42 -15.5t17 -38.5q0 -16 -14 -37q-9 -15 -9 -22q0 -17 32 -17q25 0 36.5 18t11.5 58v474q0 32 -12.5 44t-50.5 15v24h202z" />
<glyph unicode="&#x250;" horiz-adv-x="512" d="M28 395l-15 21q53 57 112 57q37 0 55.5 -15.5t26.5 -53.5q76 69 159 69q50 0 80 -26.5t30 -79.5q0 -67 -67 -112q-50 -33 -201 -76v-68q0 -49 18.5 -71t62.5 -22q28 0 46.5 10t18.5 27q0 11 -11 23q-19 23 -19 42q0 26 19 43t49 17q31 0 48 -18t17 -50q0 -59 -52.5 -92.5 t-138.5 -33.5q-92 0 -144 35t-52 99v261q0 28 -21 28q-7 0 -11 -4zM208 362v-148q122 34 122 121q0 32 -14.5 49.5t-37.5 17.5q-42 0 -70 -40z" />
<glyph unicode="&#x251;" horiz-adv-x="608" d="M594 50l-194 -58v53q-1 -1 -10 -9t-15 -12.5t-20 -12.5t-27 -13t-32.5 -8.5t-40.5 -3.5t-44 3.5t-56.5 17.5t-59.5 37.5t-44.5 68.5t-18.5 104q0 105 69.5 180.5t176.5 75.5q67 0 122 -46l106 46h14v-388q0 -25 15 -25q6 0 59 7v-17zM400 109v231q0 47 -32.5 74t-68.5 27 q-49 0 -86.5 -47t-37.5 -141q0 -105 42.5 -157t103.5 -52q25 0 52 19.5t27 45.5z" />
<glyph unicode="&#x252;" horiz-adv-x="608" d="M226 467v-53q1 1 10 9t15 12.5t20 12.5t27 13t32.5 8.5t40.5 3.5t44 -3.5t56.5 -17.5t59.5 -37.5t44.5 -68.5t18.5 -104q0 -105 -69.5 -180.5t-176.5 -75.5q-67 0 -122 46l-106 -46h-14v388q0 25 -15 25q-6 0 -59 -7v17zM226 350v-231q0 -47 32.5 -74t68.5 -27 q49 0 86.5 47t37.5 141q0 105 -42.5 157t-103.5 52q-25 0 -52 -19.5t-27 -45.5z" />
<glyph unicode="&#x253;" horiz-adv-x="560" d="M213 586v-169q53 56 122 56q83 0 135.5 -65t52.5 -169q0 -113 -63 -183t-163 -70q-70 0 -132 57l-79 -56h-12v479q0 126 40 174q42 51 135 51q64 0 103 -28t39 -72q0 -28 -17 -46t-44 -18q-25 0 -42.5 17t-17.5 40q0 20 11 36.5t11 20.5q0 19 -29 19q-26 0 -38 -17 t-12 -57zM213 360v-263q0 -36 19 -57.5t50 -21.5q94 0 94 203q0 198 -93 198q-25 0 -41 -13.5t-29 -45.5z" />
<glyph unicode="&#x254;" horiz-adv-x="472" d="M33 350l-18 18q41 56 86 80.5t105 24.5q95 0 154.5 -65t59.5 -171q0 -110 -68 -180.5t-169 -70.5q-66 0 -110 31t-44 79q0 29 18.5 46.5t49.5 17.5q26 0 41 -19t15 -54q0 -18 0.5 -26t2.5 -18.5t6 -15t12.5 -7.5t20.5 -3q38 0 61 44.5t23 124.5q0 102 -37 161t-102 59 q-58 0 -107 -56z" />
<glyph unicode="&#x255;" horiz-adv-x="477" d="M107 -161l77 156q-52 14 -91 53q-63 63 -63 174q0 110 68 180.5t169 70.5q66 0 110 -31t44 -79q0 -29 -18.5 -46.5t-49.5 -17.5q-26 0 -41 19t-15 54q0 18 -0.5 26t-2.5 18.5t-6 15t-12.5 7.5t-20.5 3q-38 0 -61 -44.5t-23 -124.5q0 -128 56 -195q25 37 36.5 51t33.5 26 t51 12q44 0 70.5 -23t26.5 -60q0 -44 -34 -74.5t-97 -30.5q-67 0 -86 4l-73 -144h-48zM401 84q0 21 -16 32t-37 11q-24 0 -43 -17t-45 -59q13 -11 36.5 -19.5t36.5 -8.5q68 0 68 61z" />
<glyph unicode="&#x256;" horiz-adv-x="602" d="M482 676v-799q0 -44 11.5 -61.5t38.5 -17.5q29 0 29 19q0 4 -11 20.5t-11 36.5q0 23 17.5 40t42.5 17q27 0 44 -18t17 -46q0 -44 -39 -72t-103 -28q-93 0 -135 51q-40 48 -40 175v59q-36 -38 -63.5 -52t-66.5 -14q-79 0 -130 66t-51 169q0 109 54.5 180.5t137.5 71.5 q34 0 60.5 -13.5t58.5 -48.5v183q0 35 -13 44.5t-63 13.5v24h215zM343 112v243q-11 29 -32 45.5t-46 16.5q-85 0 -85 -188q0 -187 78 -187q36 0 66 37q19 25 19 33z" />
<glyph unicode="&#x257;" horiz-adv-x="650" d="M343 411v64q0 109 40 157q42 51 135 51q64 0 103 -28t39 -72q0 -28 -17 -46t-44 -18q-25 0 -42.5 17t-17.5 40q0 20 11 36.5t11 20.5q0 19 -29 19q-26 0 -38 -15t-12 -52v-484q0 -32 12.5 -44t46.5 -14v-23l-62 -8q-82 -11 -133 -25v65q-35 -37 -64 -51.5t-69 -14.5 q-79 0 -130 66t-51 169q0 109 54.5 180.5t137.5 71.5q34 0 60.5 -13.5t58.5 -48.5zM343 112v243q-11 29 -32 45.5t-46 16.5q-85 0 -85 -188q0 -187 78 -187q36 0 66 37q19 25 19 33z" />
<glyph unicode="&#x258;" horiz-adv-x="457" d="M283 245h-252q6 120 59 178q45 50 128 50q94 0 151.5 -68.5t57.5 -180.5q0 -103 -57 -170.5t-147 -67.5q-65 0 -109.5 28t-88.5 98l24 14q31 -37 57 -52.5t58 -15.5q35 0 58.5 15t35.5 44t17 57.5t8 70.5zM154 282h134q0 87 -17 123.5t-53 36.5q-20 0 -31.5 -11 t-23.5 -36q-9 -19 -9 -92v-21z" />
<glyph unicode="&#x259;" horiz-adv-x="457" d="M43 333l-24 14q44 70 88.5 98t109.5 28q90 0 147 -67.5t57 -170.5q0 -112 -57.5 -180.5t-151.5 -68.5q-83 0 -128 50q-53 58 -59 178h252q-3 42 -8 70.5t-17 57.5t-35.5 44t-58.5 15q-32 0 -58 -15.5t-57 -52.5zM282 177h-134v-21q0 -73 9 -92q12 -25 23.5 -36t31.5 -11 q36 0 53 36.5t17 123.5z" />
<glyph unicode="&#x25a;" horiz-adv-x="688" d="M677 289l-11 -27q-10 -25 -32.5 -41t-50.5 -16q-40 0 -61.5 21.5t-21.5 61.5q0 86 1 93l-72 -43q14 -45 14 -103q0 -112 -57.5 -180.5t-151.5 -68.5q-83 0 -128 50q-25 28 -39 64t-15 62l252 146q-11 42 -45 67.5t-79 25.5q-32 0 -58 -15.5t-57 -52.5l-24 14 q46 74 91 100t107 26q112 0 172 -103l118 71l13 -12q-5 -85 -5 -140q0 -20 13 -33.5t32 -13.5q22 0 36 12t19 23l10 25zM304 178v88l-129 -75v-53q0 -121 61 -121q68 0 68 161z" />
<glyph unicode="&#x25b;" horiz-adv-x="493" d="M416 102l23 -18q-44 -61 -94 -79.5t-119 -18.5q-81 0 -141 34.5t-60 102.5q0 44 33 78.5t85 48.5q-47 21 -69 45t-22 63q0 115 189 117q45 0 80 -10t64.5 -35t29.5 -49q0 -51 -50 -51q-28 0 -41.5 14.5t-29.5 55.5q-15 38 -56 38q-36 0 -51 -20.5t-15 -67.5 q0 -29 22 -50.5t48 -29.5q16 -5 52 -6v-37h-53q-36 0 -56.5 -26.5t-20.5 -71.5q0 -42 25.5 -68t65.5 -26q52 0 89 13.5t72 53.5z" />
<glyph unicode="&#x25c;" horiz-adv-x="493" d="M170 227v37q36 1 52 6q26 8 48 29.5t22 50.5q0 47 -15 67.5t-51 20.5q-41 0 -56 -38q-16 -41 -29.5 -55.5t-41.5 -14.5q-50 0 -50 51q0 24 29.5 49t64.5 35t80 10q189 -2 189 -117q0 -39 -22 -63t-69 -45q52 -14 85 -48.5t33 -78.5q0 -68 -60 -102.5t-141 -34.5 q-69 0 -119 18.5t-94 79.5l23 18q35 -40 72 -53.5t89 -13.5q40 0 65.5 26t25.5 68q0 45 -20.5 71.5t-56.5 26.5h-53z" />
<glyph unicode="&#x25d;" horiz-adv-x="683" d="M658 289l-11 -27q-10 -25 -32.5 -41t-50.5 -16q-40 0 -61.5 21.5t-21.5 61.5q0 86 1 93l-72 -44q-6 -30 -27.5 -49.5t-61.5 -37.5q52 -14 85.5 -49t33.5 -78q0 -68 -60.5 -102.5t-141.5 -34.5q-68 0 -119 19t-94 79l23 18q35 -40 72 -53.5t89 -13.5q40 0 65.5 26t25.5 68 q0 45 -20.5 71.5t-56.5 26.5h-53v37q36 1 52 6q26 8 48 29.5t22 50.5q0 48 -15 68t-53 20q-39 0 -54 -38q-16 -41 -29.5 -55.5t-41.5 -14.5q-50 0 -50 51q0 24 29.5 49t64.5 35t80 10q169 -2 187 -94l100 60l13 -12q-5 -85 -5 -140q0 -20 13 -33.5t32 -13.5q22 0 36 12 t19 23l10 25z" />
<glyph unicode="&#x25e;" horiz-adv-x="523" d="M469 123q0 -69 -60.5 -103t-152.5 -34q-33 0 -68 10t-74 34.5t-64 77t-25 125.5q0 108 65 175t155 67q197 0 197 -117q0 -39 -22 -63t-69 -45q52 -14 85 -48.5t33 -78.5zM200 227v37q36 1 52 6q26 8 48 29.5t22 50.5q0 48 -15 68t-53 20q-64 0 -111.5 -56.5t-47.5 -139.5 q0 -91 42.5 -149t101.5 -58q40 0 65 26t25 68q0 45 -20 71.5t-56 26.5h-53z" />
<glyph unicode="&#x25f;" horiz-adv-x="338" d="M314 461v-24q-51 0 -51 -60v-123h48v-46h-48v-206q0 -84 -27 -129q-43 -76 -150 -76q-62 0 -101 28t-39 72q0 27 17 44t45 17q25 0 42 -15.5t17 -38.5q0 -16 -14 -37q-9 -15 -9 -22q0 -17 32 -17q25 0 36.5 18t11.5 58v304h-101v46h101v123q0 32 -12.5 45.5t-50.5 14.5 v24h253z" />
<glyph unicode="&#x260;" horiz-adv-x="627" d="M345 -68v110q-44 -56 -123 -56t-132 63.5t-53 169.5q0 108 61.5 181t160.5 73q47 0 86 -22q0 132 40 181q42 51 135 51q64 0 103 -28t39 -72q0 -28 -17 -46t-44 -18q-25 0 -42.5 17t-17.5 40q0 20 11 36.5t11 20.5q0 19 -29 19q-27 0 -38.5 -17.5t-11.5 -61.5v-591 q0 -26 -7.5 -62t-19.5 -56q-62 -109 -206 -109q-88 0 -141 28q-55 29 -55 82q0 27 17 44t45 17q25 0 42 -15.5t17 -38.5q0 -16 -14 -37q-9 -15 -9 -22q0 -14 22.5 -20.5t44.5 -6.5q53 0 89 50t36 96zM345 98v256q0 41 -18.5 64t-48.5 23q-44 0 -69.5 -51t-25.5 -154 q0 -98 25 -147t68 -49q28 0 48.5 15.5t20.5 42.5z" />
<glyph unicode="&#x261;" horiz-adv-x="571" d="M484 472v-490q0 -26 -7.5 -62t-19.5 -56q-62 -109 -206 -109q-88 0 -141 28q-55 29 -55 82q0 27 17 44t45 17q25 0 42 -15.5t17 -38.5q0 -16 -14 -37q-9 -15 -9 -22q0 -14 22.5 -20.5t44.5 -6.5q53 0 89 50t36 96v110q-44 -56 -123 -56t-132 63.5t-53 169.5 q0 108 61.5 181t160.5 73q38 0 66 -12t66 -44l77 55h16zM345 98v256q0 41 -18.5 64t-48.5 23q-44 0 -69.5 -51t-25.5 -154q0 -98 25 -147t68 -49q28 0 48.5 15.5t20.5 42.5z" />
<glyph unicode="&#x262;" horiz-adv-x="590" d="M555 192v-16q-38 -4 -50 -18.5t-12 -48.5v-78q-76 -42 -200 -42q-112 0 -185 63.5t-73 168.5q0 100 72.5 170t179.5 70q47 0 114 -24q18 -9 31 -9q11 0 18 6t16 25h19v-156h-18q-21 40 -34.5 59.5t-35.5 39.5q-43 37 -100 37q-64 0 -99.5 -55t-35.5 -157t37 -159t112 -57 q68 0 68 56v59q0 27 -13.5 37.5t-59.5 12.5v16h249z" />
<glyph unicode="&#x263;" horiz-adv-x="532" d="M507 437h-13q-21 0 -42 -58l-107 -291l43 -106q32 -78 32 -109q0 -47 -35 -76.5t-86 -29.5q-115 0 -115 91q0 22 21 70l33 73l-128 312q-20 48 -49 106q-7 15 -37 18v24h249v-24q-52 0 -52 -24q0 -11 31 -88l61 -158l66 183q13 35 13 55q0 9 -2.5 15t-9 9.5t-9.5 4.5 t-12.5 2.5t-10.5 1.5v23h159v-24zM270 -67l-19 -47q-8 -20 -8 -36q0 -44 31 -44q26 0 26 34q0 22 -7 39z" />
<glyph unicode="&#x264;" horiz-adv-x="514" d="M275 263l95 142q29 45 62 45t49 -23.5t16 -57.5q0 -29 -13 -68h-10q-17 53 -47 53q-31 0 -50 -30l-70 -108l43 -72q27 -44 27 -75q0 -38 -40.5 -58.5t-82.5 -20.5q-40 0 -67.5 21.5t-27.5 60.5q0 29 24 63l37 52l-60 93q-2 4 -10 16l-14 21q-5 8 -13.5 17.5t-17.5 14.5 t-18 5q-29 0 -48 -53h-10q-12 31 -12 56q0 37 24 64.5t60 27.5q54 0 104 -78zM290 57q0 16 -38 78q-2 -2 -6.5 -8.5t-5.5 -8.5l-6 -8q-4 -5 -5.5 -8t-4 -8.5t-3 -9.5t-1.5 -9.5t-1 -11.5q0 -17 10 -28.5t27 -11.5q14 0 24 10.5t10 23.5z" />
<glyph unicode="&#x265;" horiz-adv-x="550" d="M536 -226h-193v280q-65 -77 -147 -77q-60 0 -95 38t-35 98v250q0 34 -11.5 48.5t-37.5 14.5v24h234v-24q-25 -3 -35.5 -16.5t-10.5 -44.5v-224q0 -54 11 -75.5t40 -21.5q36 0 70 34q17 17 17 24v263q0 31 -10 44t-38 17v24h240v-24q-36 -7 -44.5 -16t-8.5 -49v-502 q0 -35 9 -44.5t45 -16.5v-24z" />
<glyph unicode="&#x266;" horiz-adv-x="550" d="M532 0h-234v24q25 3 35.5 16.5t10.5 44.5v224q0 54 -11 75.5t-40 21.5q-36 0 -70 -34q-17 -17 -17 -24v-263q0 -31 10 -44t38 -17v-24h-240v24q36 7 44.5 16t8.5 49v393q0 102 40 150q42 51 135 51q64 0 103 -28t39 -72q0 -28 -17 -46t-44 -18q-25 0 -42.5 17t-17.5 40 q0 20 11 36.5t11 20.5q0 19 -29 19q-26 0 -38 -15t-12 -52v-189q65 77 147 77q60 0 95 -38t35 -98v-250q0 -34 11.5 -48.5t37.5 -14.5v-24z" />
<glyph unicode="&#x267;" horiz-adv-x="556" d="M485 337v-337q0 -84 -27 -129q-43 -76 -150 -76q-62 0 -101 28t-39 72q0 27 17 44t45 17q25 0 42 -15.5t17 -38.5q0 -16 -14 -37q-9 -15 -9 -22q0 -17 32 -17q48 0 48 65v418q0 54 -11 75.5t-40 21.5q-36 0 -70 -34q-17 -17 -17 -24v-263q0 -31 10 -44t38 -17v-24h-240 v24q36 7 44.5 16t8.5 49v393q0 102 40 150q42 51 135 51q64 0 103 -28t39 -72q0 -28 -17 -46t-44 -18q-25 0 -42.5 17t-17.5 40q0 20 11 36.5t11 20.5q0 19 -29 19q-26 0 -38 -15t-12 -52v-189q65 77 147 77q60 0 95 -38t35 -98z" />
<glyph unicode="&#x268;" horiz-adv-x="292" d="M221 613q0 -33 -22.5 -55t-55.5 -22t-55 22t-22 55t22.5 55.5t56.5 22.5q31 0 53.5 -23t22.5 -55zM262 0h-240v24q35 8 44 19t9 45v135h-53v46h53v104q0 33 -10.5 45t-43.5 19v24h193v-192h45v-46h-45v-138q0 -32 10.5 -44.5t37.5 -16.5v-24z" />
<glyph unicode="&#x269;" horiz-adv-x="366" d="M323 95l16 -17q-52 -86 -143 -86q-117 0 -117 136v212q0 48 -12 48q-16 0 -45 -10v27q135 51 177 51q19 0 19 -28v-321q0 -30 11 -43.5t23 -13.5q36 0 71 45z" />
<glyph unicode="&#x26a;" horiz-adv-x="297" d="M264 0h-238v17q39 4 51.5 14t12.5 42v319q0 29 -13.5 39.5t-50.5 12.5v17h238v-17q-37 -2 -50 -12.5t-13 -39.5v-319q0 -33 12 -43.5t51 -12.5v-17z" />
<glyph unicode="&#x26b;" horiz-adv-x="395" d="M337 433h43q-34 -127 -115 -127v-219q0 -33 12 -47.5t38 -15.5v-24h-240v24q51 4 51 63v264q-12 4 -20 4q-19 0 -32.5 -13t-16.5 -34h-42q25 122 111 125v154q0 61 -52 65v24h191v-289q7 -3 18 -3q20 0 32 11t22 38z" />
<glyph unicode="&#x26c;" horiz-adv-x="446" d="M417 384l11 -21q-5 -8 -14.5 -21t-43 -44t-71.5 -50v-161q0 -33 12 -47.5t38 -15.5v-24h-240v24q51 4 51 63v143q-10 -1 -27 -1q-49 0 -82.5 30t-33.5 84q0 57 34 86t82 29q7 0 27 -5v134q0 61 -52 65v24h191v-376q52 18 118 84zM160 276v141q-10 4 -23 4 q-22 0 -41 -21.5t-19 -46.5q0 -65 54 -76q5 -1 29 -1z" />
<glyph unicode="&#x26d;" horiz-adv-x="326" d="M206 676v-786q0 -37 12.5 -64.5t35.5 -27.5q32 0 32 17q0 7 -9 22q-14 21 -14 37q0 23 17 38.5t42 15.5q28 0 45 -17t17 -44q0 -44 -39 -72t-101 -28q-104 0 -150 76q-27 45 -27 99v645q0 61 -52 65v24h191z" />
<glyph unicode="&#x26e;" horiz-adv-x="619" d="M587 423l-194 -197q22 6 53 6q59 0 108 -57.5t49 -148.5q0 -87 -34.5 -147t-73.5 -86q-46 -29 -113 -29q-38 0 -78.5 9t-62.5 24q-47 32 -47 71q0 20 14.5 35t44.5 15q57 0 67 -67q4 -22 24 -36t45 -14q87 0 87 207q0 66 -19.5 113t-64.5 47q-62 0 -109 -47l-27 24 l228 232h-204q-16 0 -35 -14.5t-30 -39.5v-236q0 -33 12 -47.5t38 -15.5v-24h-240v24q51 4 51 63v500q0 61 -52 65v24h191v-226h372v-27z" />
<glyph unicode="&#x26f;" horiz-adv-x="828" d="M815 12h-192v75h-3q-29 -46 -62.5 -66.5t-81.5 -20.5q-47 0 -76 20t-52 67q-39 -48 -71.5 -67.5t-75.5 -19.5q-62 0 -98.5 38t-36.5 104v248q0 32 -10.5 45t-39.5 14v24h237v-24q-28 -2 -38 -14.5t-10 -44.5v-228q0 -95 53 -95q29 0 58 25q9 7 18 18t9 15v265 q0 29 -10 42.5t-36 16.5v24h232v-24q-27 -2 -37 -15t-10 -44v-240q0 -45 12.5 -64t41.5 -19q19 0 51.5 22.5t32.5 39.5v261q0 29 -9.5 42t-35.5 17v24h239v-24q-33 -6 -44 -18.5t-11 -43.5v-287q0 -35 11 -47t45 -17v-24z" />
<glyph unicode="&#x270;" horiz-adv-x="859" d="M836 -233h-272v24q33 6 44.5 17t11.5 37v242q-29 -46 -62.5 -66.5t-81.5 -20.5q-47 0 -76 20t-52 67q-39 -48 -71.5 -67.5t-75.5 -19.5q-62 0 -98.5 38t-36.5 104v248q0 32 -10.5 45t-39.5 14v24h237v-24q-28 -2 -38 -14.5t-10 -44.5v-228q0 -95 53 -95q29 0 58 25 q9 7 18 18t9 15v265q0 29 -10 42.5t-36 16.5v24h232v-24q-27 -2 -37 -15t-10 -44v-240q0 -45 12.5 -64t41.5 -19q19 0 51.5 22.5t32.5 39.5v261q0 29 -9.5 42t-35.5 17v24h239v-24q-33 -6 -44 -18.5t-11 -43.5v-494q0 -52 16.5 -76t60.5 -26v-24z" />
<glyph unicode="&#x271;" horiz-adv-x="847" d="M770 331v-359q0 -84 -27 -129q-43 -76 -150 -76q-62 0 -101 28t-39 72q0 27 17 44t45 17q25 0 42 -15.5t17 -38.5q0 -16 -14 -37q-9 -15 -9 -22q0 -17 32 -17q48 0 48 65v448q0 95 -53 95q-29 0 -58 -25q-9 -7 -18 -18t-9 -15v-265q0 -29 10 -42.5t36 -16.5v-24h-232v24 q27 2 37 15t10 44v240q0 45 -12.5 64t-41.5 19q-19 0 -51.5 -22.5t-32.5 -39.5v-261q0 -29 9.5 -42t35.5 -17v-24h-239v24q33 6 44 18.5t11 43.5v287q0 35 -11 47t-45 17v24h192v-75h3q29 46 62.5 66.5t81.5 20.5q47 0 76 -20t52 -67q39 48 71.5 67.5t75.5 19.5 q62 0 98.5 -38t36.5 -104z" />
<glyph unicode="&#x272;" horiz-adv-x="625" d="M586 0h-234v24q25 3 35.5 16.5t10.5 43.5v237q0 85 -51 85q-36 0 -70 -34q-17 -17 -17 -24v-392q0 -67 -27 -113q-43 -76 -150 -76q-62 0 -101 28t-39 72q0 27 17 44t45 17q25 0 42 -15.5t17 -38.5q0 -16 -14 -37q-9 -15 -9 -22q0 -17 32 -17q48 0 48 65v513q0 32 -10 44 t-43 17v24h191v-75q51 87 143 87q62 0 98.5 -38.5t36.5 -103.5v-247q0 -34 10 -46t39 -14v-24z" />
<glyph unicode="&#x273;" horiz-adv-x="610" d="M490 331v-448q0 -34 13 -59.5t35 -25.5q32 0 32 17q0 7 -9 22q-14 21 -14 37q0 23 17 38.5t42 15.5q28 0 45 -17t17 -44q0 -44 -39 -72t-101 -28q-104 0 -150 76q-27 44 -27 90v388q0 85 -51 85q-36 0 -70 -34q-17 -17 -17 -24v-264q0 -29 10.5 -42.5t37.5 -17.5v-24 h-240v24q33 7 43 19t10 44v289q0 32 -10 44t-43 17v24h191v-75h1q49 87 142 87q62 0 98.5 -38.5t36.5 -103.5z" />
<glyph unicode="&#x274;" horiz-adv-x="604" d="M558 461v-17q-38 -5 -48.5 -14.5t-10.5 -41.5v-400h-23l-342 371v-271q0 -39 14.5 -52.5t58.5 -18.5v-17h-173v17q41 5 53.5 15t12.5 41v323q-38 48 -64 48v17h161l268 -294v205q0 40 -14 54.5t-56 17.5v17h163z" />
<glyph unicode="&#x275;" horiz-adv-x="520" d="M485 229q0 -105 -64.5 -174t-161.5 -69q-95 0 -160 68.5t-65 173.5q0 109 64.5 177t164.5 68q95 0 158.5 -69t63.5 -175zM181 253h156q-2 104 -19.5 146.5t-57.5 42.5q-42 0 -59.5 -42t-19.5 -147zM338 207h-157q0 -106 17.5 -148t61.5 -42q43 0 60 40.5t18 149.5z" />
<glyph unicode="&#x276;" horiz-adv-x="741" d="M713 141l-30 -143h-306q-60 0 -78 -1q-20 -2 -29 -2q-105 0 -163 48q-79 64 -79 182q0 128 97 195q59 41 145 41q3 0 18.5 -1.5t42 -2.5t55.5 -1h298v-136h-18q-8 40 -19.5 60.5t-34.5 33.5q-30 18 -115 18q-21 0 -28.5 -4t-7.5 -14v-166q58 2 75.5 18t30.5 80h18v-229 h-18q-8 61 -29 82.5t-77 24.5v-170q0 -20 10 -26t41 -6q79 0 120 34q35 28 61 85h20zM349 142v197q0 64 -12 80q-12 18 -56 18q-131 0 -131 -223q0 -108 28 -150q30 -45 96 -45q46 0 62 19q13 15 13 104z" />
<glyph unicode="&#x277;" horiz-adv-x="696" d="M653 196q0 -81 -53.5 -139.5t-138.5 -58.5q-34 0 -64.5 13.5t-48.5 34.5q-43 -48 -115 -48q-84 0 -137.5 58.5t-53.5 139.5q0 124 92.5 202.5t214.5 78.5q117 0 210.5 -79t93.5 -202zM512 212q0 118 -47.5 179.5t-115.5 61.5q-69 0 -117.5 -61.5t-48.5 -179.5 q0 -61 14.5 -114.5t49.5 -53.5q20 0 40.5 21.5t20.5 51.5q0 27 -11.5 68.5t-11.5 66.5q0 35 12.5 55t50.5 20q37 0 50 -20t13 -55q0 -25 -12 -66.5t-12 -68.5q0 -30 19.5 -51.5t40.5 -21.5q65 0 65 168z" />
<glyph unicode="&#x278;" horiz-adv-x="713" d="M426 591v-156q41 -4 81.5 -19t77 -40t59.5 -65.5t23 -89.5q0 -90 -76 -153t-165 -69v-138q0 -41 13.5 -53.5t54.5 -14.5v-24h-277v24q41 3 55.5 17t14.5 54v135q-90 6 -166 69t-76 153q0 64 40 113t93 72.5t109 28.5v153q0 41 -14.5 55.5t-55.5 17.5v24h277v-24 q-41 -2 -54.5 -15t-13.5 -55zM426 398v-360q42 21 71 73.5t29 111.5q0 62 -28.5 110.5t-71.5 64.5zM287 39v359q-43 -17 -72 -65t-29 -110q0 -58 29.5 -110.5t71.5 -73.5z" />
<glyph unicode="&#x279;" horiz-adv-x="456" d="M441 2h-190v82q-35 -51 -66 -72.5t-69 -21.5q-35 0 -58 22.5t-23 56.5q0 30 17.5 49t45.5 19q37 0 60 -38q14 -23 28 -23q26 0 43.5 30t17.5 74v177q0 48 -13.5 63.5t-58.5 18.5v24h265v-24q-33 -6 -43.5 -17.5t-10.5 -42.5v-289q0 -35 11 -47t44 -17v-24z" />
<glyph unicode="&#x27a;" horiz-adv-x="456" d="M441 2h-190v82q-35 -51 -66 -72.5t-69 -21.5q-35 0 -58 22.5t-23 56.5q0 30 17.5 49t45.5 19q37 0 60 -38q14 -23 28 -23q26 0 43.5 30t17.5 74v407q0 61 -52 65v24h191v-586q0 -35 11 -47t44 -17v-24z" />
<glyph unicode="&#x27b;" horiz-adv-x="506" d="M386 379v-496q0 -34 13 -59.5t35 -25.5q32 0 32 17q0 7 -9 22q-14 21 -14 37q0 23 17 38.5t42 15.5q28 0 45 -17t17 -44q0 -44 -39 -72t-101 -28q-104 0 -150 76q-27 46 -27 83v152q-35 -50 -65 -69t-66 -19q-35 0 -58 22.5t-23 56.5q0 30 17.5 49t45.5 19q37 0 60 -38 q14 -23 28 -23q26 0 43.5 30t17.5 74v177q0 48 -13.5 63.5t-58.5 18.5v24h265v-24q-33 -6 -43.5 -17.5t-10.5 -42.5z" />
<glyph unicode="&#x27c;" horiz-adv-x="426" d="M200 461v-82q35 51 66 72.5t69 21.5q35 0 58 -22.5t23 -56.5q0 -30 -17.5 -49t-45.5 -19q-37 0 -60 38q-14 23 -28 23q-26 0 -43.5 -30t-17.5 -74v-410q0 -48 13.5 -63.5t58.5 -18.5v-24h-265v24q33 6 43.5 17.5t10.5 42.5v522q0 35 -11 47t-44 17v24h190z" />
<glyph unicode="&#x27d;" horiz-adv-x="454" d="M202 461v-82q35 51 66 72.5t69 21.5q35 0 58 -22.5t23 -56.5q0 -30 -17.5 -49t-45.5 -19q-37 0 -60 38q-14 23 -28 23q-26 0 -43.5 -30t-17.5 -74v-406q0 -32 13 -55.5t35 -23.5q32 0 32 17q0 7 -9 22q-14 21 -14 37q0 23 17 38.5t42 15.5q28 0 45 -17t17 -44 q0 -44 -39 -72t-101 -28q-104 0 -150 76q-27 46 -27 83v447q0 35 -11 47t-44 17v24h190z" />
<glyph unicode="&#x27e;" horiz-adv-x="359" d="M69 84v178q0 122 40 171q42 51 135 51q64 0 103 -28t39 -72q0 -28 -17 -46t-44 -18q-25 0 -42.5 17t-17.5 40q0 20 11 36.5t11 20.5q0 19 -29 19q-50 0 -50 -73v-274q0 -48 13.5 -63.5t58.5 -18.5v-24h-265v24q33 6 43.5 17.5t10.5 42.5z" />
<glyph unicode="&#x27f;" horiz-adv-x="404" d="M381 0h-265v24q45 3 58.5 18.5t13.5 63.5v274q0 73 -50 73q-29 0 -29 -19q0 -4 11 -20.5t11 -36.5q0 -23 -17.5 -40t-42.5 -17q-27 0 -44 18t-17 46q0 44 39 72t103 28q93 0 135 -51q40 -49 40 -171v-178q0 -31 10.5 -42.5t43.5 -17.5v-24z" />
<glyph unicode="&#x280;" horiz-adv-x="516" d="M495 0h-141l-142 215h-19v-134q0 -38 9.5 -48.5t50.5 -15.5v-17h-232v17q40 5 50 15t10 51v295q0 41 -11.5 54t-48.5 15v17h211q204 0 204 -118q0 -52 -32 -81q-31 -28 -76 -39l137 -194q10 -15 30 -15v-17zM193 410v-172q71 1 98 21t27 80q0 55 -20.5 78.5t-68.5 23.5 q-20 0 -28 -7t-8 -24z" />
<glyph unicode="&#x281;" horiz-adv-x="516" d="M495 464v-17q-20 0 -30 -15l-137 -194q45 -11 76 -39q32 -29 32 -81q0 -118 -204 -118h-211v17q37 2 48.5 15t11.5 54v295q0 41 -10 51t-50 15v17h232v-17q-41 -5 -50.5 -15.5t-9.5 -48.5v-134h19l142 215h141zM193 226v-172q0 -17 8 -24t28 -7q48 0 68.5 23.5t20.5 78.5 q0 60 -27 80t-98 21z" />
<glyph unicode="&#x282;" horiz-adv-x="389" d="M340 326h-25q-19 56 -47 82q-34 32 -75 32q-28 0 -47 -16.5t-19 -41.5q0 -26 22.5 -46.5t73.5 -41.5q75 -31 106.5 -67t31.5 -89q0 -67 -43 -109.5t-111 -42.5q-52 0 -108 23q-15 6 -23 6q-20 0 -20 -27v-73q0 -102 101 -102q37 0 37 17q0 7 -9 22q-14 21 -14 37 q0 23 17 38.5t42 15.5q28 0 45 -17t17 -44q0 -44 -39 -72t-101 -28q-58 0 -92.5 29.5t-34.5 90.5v250h28q32 -132 137 -132q34 0 54.5 18t20.5 47q0 24 -22 44.5t-74 42.5q-75 32 -108.5 68.5t-33.5 86.5q0 63 44.5 104.5t112.5 41.5q34 0 78 -15q22 -7 31 -7q17 0 25 20h22 v-145z" />
<glyph unicode="&#x283;" horiz-adv-x="458" d="M121 -106v599q0 85 45 137.5t129 52.5q52 0 81.5 -21t29.5 -57q0 -26 -15 -43.5t-39 -17.5q-23 0 -38 14t-15 33q0 14 9 29.5t9 18.5q0 5 -7 9.5t-16 4.5q-42 0 -42 -137v-559q0 -85 -46.5 -137.5t-130.5 -52.5q-52 0 -81.5 21t-29.5 57q0 26 15 43.5t39 17.5 q23 0 38 -14t15 -33q0 -14 -9 -29.5t-9 -18.5q0 -5 7 -9.5t16 -4.5q45 0 45 97z" />
<glyph unicode="&#x284;" horiz-adv-x="373" d="M121 46v436q0 107 36 150q42 51 131 51q64 0 103 -28t39 -72q0 -28 -17 -46t-44 -18q-25 0 -42.5 17t-17.5 40q0 20 11 36.5t11 20.5q0 19 -29 19q-50 0 -50 -58v-548h62v-46h-62v-28q0 -84 -27 -129q-43 -76 -142 -76q-62 0 -101 28t-39 72q0 27 17 44t45 17 q25 0 42 -15.5t17 -38.5q0 -16 -14 -37q-9 -15 -9 -22q0 -17 32 -17q25 0 36.5 18t11.5 58v126h-64v46h64z" />
<glyph unicode="&#x285;" horiz-adv-x="396" d="M295 280v-386q0 -97 45 -97q9 0 16 4.5t7 9.5q0 3 -9 18.5t-9 29.5q0 19 15 33t38 14q24 0 39 -17.5t15 -43.5q0 -36 -29.5 -57t-81.5 -21q-84 0 -130.5 52.5t-46.5 137.5v397q0 86 -44 86q-9 0 -16 -4.5t-7 -9.5q0 -3 9 -18.5t9 -29.5q0 -19 -15 -33t-38 -14 q-24 0 -39 17.5t-15 43.5q0 36 29.5 57t81.5 21q84 0 130 -52.5t46 -137.5z" />
<glyph unicode="&#x286;" horiz-adv-x="399" d="M164 21v472q0 85 45 137.5t129 52.5q52 0 81.5 -21t29.5 -57q0 -26 -15 -43.5t-39 -17.5q-23 0 -38 14t-15 33q0 14 9 29.5t9 18.5q0 5 -7 9.5t-16 4.5q-42 0 -42 -130v-562q38 -43 54 -104q9 -35 9 -100h-34q0 76 -36 139q-15 -58 -58 -93.5t-110 -35.5q-64 0 -100 38 t-36 87q0 59 42.5 96t97.5 37q14 0 40 -4zM164 -106v86q-20 5 -43 5q-45 0 -71 -28t-26 -67q0 -25 21.5 -54t68.5 -29q50 0 50 87z" />
<glyph unicode="&#x287;" horiz-adv-x="333" d="M332 84v-27q-49 -33 -82 -71.5t-85 -114.5h-25v169h-95v44h95v298q0 60 -39 60q-29 0 -57 -53l-25 11q31 62 64.5 87.5t83.5 25.5q52 0 82 -28.5t30 -78.5v-322h53z" />
<glyph unicode="&#x288;" horiz-adv-x="339" d="M211 417v-540q0 -32 13 -55.5t35 -23.5q32 0 32 17q0 7 -9 22q-14 21 -14 37q0 23 17 38.5t42 15.5q28 0 45 -17t17 -44q0 -44 -39 -72t-101 -28q-104 0 -150 76q-27 46 -27 83v491h-53v27q49 33 82 71.5t85 114.5h25v-169h95v-44h-95z" />
<glyph unicode="&#x289;" horiz-adv-x="556" d="M538 20l-63 -7q-83 -9 -132 -26v65q-39 -37 -71.5 -51.5t-73.5 -14.5q-63 0 -98 38t-35 107v92h-56v46h56v103q0 35 -9 47t-40 18v24h188v-192h138v105q0 34 -12 47t-49 16v24h200v-192h57v-46h-57v-118q0 -33 12 -47t45 -15v-23zM342 98v125h-138v-96q0 -76 56 -76 q39 0 82 47z" />
<glyph unicode="&#x28a;" horiz-adv-x="500" d="M487 428h-75q-8 0 -14.5 -10.5t-6.5 -22.5q0 -18 11 -29q12 -12 28.5 -31.5t35.5 -55t19 -64.5q0 -96 -70 -159.5t-165 -63.5q-94 0 -164.5 63.5t-70.5 155.5q0 74 80 154q16 16 16 31q0 12 -8.5 22t-16.5 10h-73v24h186q-43 -140 -43 -246q0 -26 3.5 -54t12.5 -61 t29.5 -54t48.5 -21q30 0 51 21t29 55.5t11 60.5t3 54q0 106 -43 245h186v-24z" />
<glyph unicode="&#x28b;" horiz-adv-x="534" d="M228 460v-334q0 -33 22 -59.5t53 -26.5q67 0 110 61.5t43 131.5q0 46 -14 79.5t-27 45t-33 23.5q-21 13 -30 23t-9 25q0 17 14 26.5t35 9.5q33 0 58 -24.5t37.5 -60.5t18 -68t5.5 -57q0 -106 -61.5 -185.5t-169.5 -79.5q-83 0 -137 36t-54 110v235q0 13 -21 13 q-16 0 -45 -9v23q94 28 197 67z" />
<glyph unicode="&#x28c;" horiz-adv-x="500" d="M485 0h-250v24l18 2q35 4 35 24q0 8 -9 31l-79 203l-72 -182q-11 -26 -11 -45q0 -18 11.5 -24.5t43.5 -8.5v-24h-151v24q24 2 34 11.5t24 43.5l160 396h26l120 -296q47 -116 66 -141q8 -10 34 -14v-24z" />
<glyph unicode="&#x28d;" horiz-adv-x="722" d="M707 0h-222v24q38 5 38 28q0 12 -39 115l-45 118l-68 -171l20 -62q6 -17 14 -21t31 -7v-24h-234v24q28 2 38 7t10 17q0 4 -27 106l-34 127l-70 -188q-9 -25 -9 -34q0 -17 10 -24.5t38 -10.5v-24h-135v24q19 4 29.5 14t20.5 36l155 401h23l102 -310l125 310h24l148 -374 q19 -47 28.5 -60t28.5 -17v-24z" />
<glyph unicode="&#x28e;" horiz-adv-x="500" d="M482 0h-249v24l16 1q36 3 36 25q0 7 -20 58l-72 186l-68 -188q-11 -32 -11 -49q0 -18 11 -25t43 -8v-24h-152v24q24 3 36 13.5t24 41.5l148 398q45 121 77 156q31 33 84 33q43 0 70 -22t27 -57q0 -29 -17 -48t-45 -19q-25 0 -42.5 15t-17.5 37q0 4 2 14l1 6q0 7 -5 12 t-12 5q-38 0 -66 -82l-18 -53l119 -290q49 -121 67 -146q8 -10 34 -14v-24z" />
<glyph unicode="&#x28f;" horiz-adv-x="633" d="M587 464v-17q-37 -6 -53 -27l-151 -214v-122q0 -40 12.5 -51.5t59.5 -15.5v-17h-274v17q48 4 60.5 17t12.5 54v93l-142 225q-25 38 -66 41v17h265v-17l-22 -2q-19 -2 -25.5 -3t-11.5 -5t-5 -12q0 -10 19 -40l95 -159l86 122q33 46 33 70q0 15 -13 20.5t-54 8.5v17h174z " />
<glyph unicode="&#x290;" horiz-adv-x="531" d="M420 160l-20 -188q-7 -56 -7 -91q0 -28 15 -48t35 -20q36 0 36 17q0 7 -9 22q-14 21 -14 37q0 23 17 38.5t42 15.5q28 0 45 -17t17 -44q0 -44 -38 -72t-99 -28q-35 0 -59 23.5t-24 64.5q0 57 10 130h-346v25l234 404q-106 0 -139 -19t-52 -91h-26l7 142h371v-26 l-231 -403h29q61 0 91.5 12.5t55.5 46.5q20 30 31 69h28z" />
<glyph unicode="&#x291;" horiz-adv-x="538" d="M185 32h93q42 79 77.5 113.5t76.5 34.5q85 0 85 -75q0 -47 -37.5 -76t-103.5 -29h-73q-61 -107 -82 -150h-43q46 88 84 150h-241v25l234 404q-106 0 -139 -19t-52 -91h-26l7 142h371v-26zM320 32h51q36 0 54 6q37 13 48.5 29.5t11.5 38.5q0 21 -16 31.5t-37 10.5 q-27 0 -58.5 -35.5t-53.5 -80.5z" />
<glyph unicode="&#x292;" horiz-adv-x="440" d="M414 423l-194 -197q22 6 53 6q59 0 108 -57.5t49 -148.5q0 -87 -34.5 -147t-73.5 -86q-46 -29 -113 -29q-91 0 -141 33q-47 32 -47 71q0 20 14.5 35t44.5 15q57 0 67 -67q4 -22 24 -36t45 -14q87 0 87 207q0 66 -19.5 113t-64.5 47q-62 0 -109 -47l-27 24l228 232h-204 q-20 0 -44 -23.5t-29 -59.5h-26l34 156h372v-27z" />
<glyph unicode="&#x293;" horiz-adv-x="440" d="M414 423l-194 -197q22 6 53 6q55 0 106 -54.5t51 -163.5q0 -27 -9 -60.5t-26 -68.5t-47.5 -64.5t-68.5 -42.5l43 -85h-49l-38 75q-35 -4 -74 -4q-74 0 -108.5 34.5t-34.5 70.5t26 59.5t73 23.5q40 0 70.5 -24.5t70.5 -107.5q45 40 45 186q0 38 -5.5 71t-25.5 62t-53 29 q-62 0 -109 -47l-27 24l228 232h-204q-20 0 -44 -23.5t-29 -59.5h-26l34 156h372v-27zM219 -196q-55 111 -87 111q-27 0 -27 -41q0 -34 27 -53.5t67 -19.5q8 0 20 3z" />
<glyph unicode="&#x294;" horiz-adv-x="417" d="M145 378h32q47 0 83.5 34.5t36.5 91.5q0 22 -3 45t-9 48t-19.5 41t-32.5 16q-13 0 -22.5 -4.5t-15.5 -16t-9 -19.5l-7 -25q-16 -60 -71 -60q-25 0 -39 15.5t-14 32.5q0 48 55 79q49 27 102 27q94 0 154 -52.5t60 -140.5q0 -76 -47 -138.5t-127 -70.5v-197q0 -54 70 -60 v-24h-240v24q63 2 63 63v291z" />
<glyph unicode="&#x295;" horiz-adv-x="417" d="M229 84v197q-80 8 -127 70.5t-47 138.5q0 88 60 140.5t154 52.5q53 0 102 -27q55 -31 55 -79q0 -17 -14 -32.5t-39 -15.5q-55 0 -71 60l-8 25q-2 8 -8 19.5t-15.5 16t-22.5 4.5q-19 0 -32.5 -16t-19.5 -41t-9 -48t-3 -45q0 -57 36.5 -91.5t83.5 -34.5h32v-291 q0 -61 63 -63v-24h-240v24q70 6 70 60z" />
<glyph unicode="&#x296;" horiz-adv-x="417" d="M252 585v-197q80 -8 127 -70.5t47 -138.5q0 -88 -60 -140.5t-154 -52.5q-53 0 -102 27q-55 31 -55 79q0 17 14 32.5t39 15.5q55 0 71 -60l7 -25q3 -8 9 -19.5t15.5 -16t22.5 -4.5q19 0 32.5 16t19.5 41t9 48t3 45q0 57 -36.5 91.5t-83.5 34.5h-32v291q0 61 -63 63v24h240 v-24q-70 -6 -70 -60z" />
<glyph unicode="&#x297;" horiz-adv-x="479" d="M447 -38v-40q0 -64 -51 -109t-132 -45q-74 0 -133 45t-59 110v391q0 72 67 115.5t143 43.5q59 0 111.5 -33.5t53.5 -84.5q0 -22 -16 -42.5t-48 -20.5q-22 0 -39 11.5t-17 29.5q0 16 6 30t6 26q0 25 -12.5 35.5t-38.5 10.5q-38 0 -61 -27t-23 -66v-411q0 -46 25 -79.5 t63 -33.5q46 0 79 35t33 83v26h43z" />
<glyph unicode="&#x298;" horiz-adv-x="723" d="M438 328q0 -33 -22 -55.5t-55 -22.5q-34 0 -57.5 22.5t-23.5 55.5q0 34 23 57t57 23q32 0 55 -23t23 -57zM708 330q0 -146 -97.5 -246.5t-247.5 -100.5q-141 0 -245.5 97.5t-104.5 250.5t102 251t250 98t245.5 -100.5t97.5 -249.5zM580 333q0 138 -57 223t-164 85 q-100 0 -159 -79.5t-59 -228.5q0 -140 55 -223.5t166 -83.5q95 0 156.5 86.5t61.5 220.5z" />
<glyph unicode="&#x299;" horiz-adv-x="456" d="M15 464h225q85 0 130.5 -28.5t45.5 -81.5q0 -41 -26 -66.5t-86 -37.5q60 -8 98.5 -40.5t38.5 -80.5q0 -57 -50.5 -93t-142.5 -36h-233v17q39 4 50.5 14.5t11.5 39.5v320q0 31 -12.5 42t-49.5 14v17zM190 406v-149q65 0 87.5 20t22.5 72q0 92 -70 92q-21 0 -30.5 -7.5 t-9.5 -27.5zM190 234v-167q0 -24 10.5 -34t34.5 -10q84 0 84 106q0 105 -110 105h-19z" />
<glyph unicode="&#x29a;" horiz-adv-x="465" d="M455 233q0 -73 -25 -125.5t-64 -77t-74 -34.5t-68 -10q-92 0 -152.5 34t-60.5 103q0 44 33 78.5t85 48.5q-47 21 -69 45t-22 63q0 117 197 117q90 0 155 -67t65 -175zM280 227h-53q-36 0 -56 -26.5t-20 -71.5q0 -42 25 -68t65 -26q59 0 101.5 58t42.5 149 q0 83 -47.5 139.5t-111.5 56.5q-38 0 -53 -20t-15 -68q0 -29 22 -50.5t48 -29.5q16 -5 52 -6v-37z" />
<glyph unicode="&#x29b;" horiz-adv-x="600" d="M487 110v-79q-79 -42 -199 -42q-113 0 -186 63.5t-73 168.5q0 101 72.5 170.5t179.5 69.5q64 0 125 -30q5 49 26 73q27 33 69 33t68 -18t26 -47q0 -18 -11.5 -29.5t-29.5 -11.5q-16 0 -27 10.5t-11 25.5q0 13 6.5 24t6.5 13q0 13 -19 13q-32 0 -32 -40v-174h-18 q-19 40 -32 59.5t-36 39.5q-42 36 -101 36q-64 0 -99 -54.5t-35 -157.5q0 -102 36 -157q38 -59 112 -59q69 0 69 57v58q0 27 -14.5 37.5t-60.5 13.5v16h251v-16q-39 -5 -51 -19.5t-12 -46.5z" />
<glyph unicode="&#x29c;" horiz-adv-x="582" d="M561 0h-248v17q40 5 52.5 14.5t12.5 35.5v157h-177v-157q0 -27 13 -36t53 -14v-17h-246v17q39 5 50.5 14t11.5 36v329q0 28 -12.5 38t-49.5 13v17h246v-17q-39 -3 -52.5 -13t-13.5 -38v-140h177v140q0 28 -13 38t-52 13v17h248v-17q-38 -3 -51.5 -13.5t-13.5 -37.5v-329 q0 -27 12.5 -36t52.5 -14v-17z" />
<glyph unicode="&#x29d;" horiz-adv-x="394" d="M282 613q0 -33 -22.5 -55t-56.5 -22q-33 0 -54.5 22t-21.5 55t22.5 55.5t55.5 22.5q31 0 54 -23t23 -55zM414 -233h-48q-35 44 -103 112q-49 -112 -182 -112q-62 0 -101.5 32t-39.5 86t39.5 86.5t89.5 32.5q33 0 71 -9v383q0 32 -12.5 44t-50.5 15v24h202v-447 q0 -57 -5 -83q13 -11 27.5 -25t24 -24t24.5 -30l20 -26q6 -7 24 -31zM140 -95v40q-33 19 -77 19q-30 0 -54.5 -20.5t-24.5 -54.5q0 -42 26 -62t63 -20q67 0 67 98z" />
<glyph unicode="&#x29e;" horiz-adv-x="556" d="M543 -215h-187v431l-128 -128q-21 -21 -21 -38q0 -19 35 -23l24 -3v-24h-214v24q48 6 81.5 29t107.5 101l-194 268q-11 15 -25 15v24h234v-24q-42 -1 -42 -19q0 -12 24 -45l95 -134l23 24v114q0 35 -8.5 45t-43.5 15v24h239v-24q-48 -4 -48 -60v-510q0 -54 48 -58v-24z " />
<glyph unicode="&#x29f;" horiz-adv-x="470" d="M440 156l-27 -156h-396v17q35 4 45 13.5t10 36.5v328q0 29 -11 39.5t-44 12.5v17h238v-17q-42 -1 -53.5 -13.5t-11.5 -53.5v-313q0 -21 21 -32.5t55 -11.5q37 0 56.5 8t39.5 28q29 29 56 97h22z" />
<glyph unicode="&#x2a0;" horiz-adv-x="636" d="M342 -90v132q-44 -56 -123 -56t-132 63.5t-53 169.5q0 108 61.5 181t160.5 73q50 0 91 -26q9 53 35 84q42 51 135 51q64 0 103 -28t39 -72q0 -28 -17 -46t-44 -18q-25 0 -42.5 17t-17.5 40q0 20 11 36.5t11 20.5q0 19 -29 19q-26 0 -38 -13.5t-12 -46.5v-614 q0 -30 10 -40.5t45 -17.5v-24h-267v24q48 7 60.5 23.5t12.5 67.5zM342 98v256q0 41 -18.5 64t-48.5 23q-44 0 -69.5 -51t-25.5 -154q0 -98 25 -147t68 -49q28 0 48.5 15.5t20.5 42.5z" />
<glyph unicode="&#x2a1;" horiz-adv-x="500" d="M145 378h32q47 0 83.5 34.5t36.5 91.5q0 22 -3 45t-9 48t-19.5 41t-32.5 16q-13 0 -22.5 -4.5t-15.5 -16t-9 -19.5l-7 -25q-16 -60 -71 -60q-25 0 -39 15.5t-14 32.5q0 48 55 79q49 27 102 27q94 0 154 -52.5t60 -140.5q0 -76 -47 -138.5t-127 -70.5v-73h65v-46h-65v-78 q0 -54 70 -60v-24h-240v24q63 2 63 63v75h-66v46h66v170z" />
<glyph unicode="&#x2a2;" horiz-adv-x="500" d="M229 208v73q-80 8 -127 70.5t-47 138.5q0 88 60 140.5t154 52.5q53 0 102 -27q55 -31 55 -79q0 -17 -14 -32.5t-39 -15.5q-55 0 -71 60l-8 25q-2 8 -8 19.5t-15.5 16t-22.5 4.5q-19 0 -32.5 -16t-19.5 -41t-9 -48t-3 -45q0 -57 36.5 -91.5t83.5 -34.5h32v-170h66v-46h-66 v-75q0 -61 63 -63v-24h-240v24q70 6 70 60v78h-65v46h65z" />
<glyph unicode="&#x2a3;" horiz-adv-x="868" d="M843 146l-16 -160h-488v66q-35 -37 -64 -51.5t-69 -14.5q-79 0 -130 66t-51 169q0 109 54.5 180.5t137.5 71.5q34 0 60.5 -13.5t58.5 -48.5v183q0 35 -13 44.5t-63 13.5v24h215v-229h364v-26l-231 -403h29q61 0 91.5 12.5t55.5 46.5q20 30 31 69h28zM479 71l199 344 q-106 0 -139 -19t-52 -91h-12v-204q0 -19 4 -30zM336 112v243q-11 29 -32 45.5t-46 16.5q-85 0 -85 -188q0 -187 78 -187q36 0 66 37q19 25 19 33z" />
<glyph unicode="&#x2a4;" horiz-adv-x="810" d="M778 423l-194 -197q22 6 53 6q59 0 108 -57.5t49 -148.5q0 -87 -34.5 -147t-73.5 -86q-46 -29 -113 -29q-91 0 -141 33q-47 32 -47 71q0 20 14.5 35t44.5 15q57 0 67 -67q4 -22 24 -36t45 -14q87 0 87 207q0 66 -19.5 113t-64.5 47q-62 0 -108 -46q-62 -61 -121 -130 l-15 1v59q-35 -37 -64 -51.5t-69 -14.5q-79 0 -130 66t-51 169q0 109 54.5 180.5t137.5 71.5q34 0 60.5 -13.5t58.5 -48.5v183q0 35 -13 44.5t-63 13.5v24h215v-226h303v-27zM675 377h-200v-204zM336 112v243q-11 29 -32 45.5t-46 16.5q-85 0 -85 -188q0 -187 78 -187 q36 0 66 37q19 25 19 33z" />
<glyph unicode="&#x2a5;" horiz-adv-x="960" d="M601 18h93q42 79 77.5 113.5t76.5 34.5q85 0 85 -75q0 -47 -37.5 -76t-103.5 -29h-73q-61 -107 -82 -150h-43q46 88 84 150h-339v66q-35 -37 -64 -51.5t-69 -14.5q-79 0 -130 66t-51 169q0 109 54.5 180.5t137.5 71.5q34 0 60.5 -13.5t58.5 -48.5v183q0 35 -13 44.5 t-63 13.5v24h215v-229h357v-26zM736 18h51q36 0 54 6q37 13 48.5 29.5t11.5 38.5q0 21 -16 31.5t-37 10.5q-27 0 -58.5 -35.5t-53.5 -80.5zM476 79l195 336q-106 0 -139 -19t-52 -91h-5v-204q0 -16 1 -22zM336 112v243q-11 29 -32 45.5t-46 16.5q-85 0 -85 -188 q0 -187 78 -187q36 0 66 37q19 25 19 33z" />
<glyph unicode="&#x2a6;" horiz-adv-x="626" d="M577 326h-25q-19 56 -47 82q-34 32 -75 32q-28 0 -47 -16.5t-19 -41.5q0 -26 22.5 -46.5t73.5 -41.5q75 -31 106.5 -67t31.5 -89q0 -67 -43 -108.5t-111 -41.5q-109 0 -155 46q-40 -46 -105 -46q-52 0 -82 28.5t-30 78.5v322h-53v27q49 33 82 71.5t85 114.5h25v-169h144 q30 12 66 12q34 0 78 -15q22 -7 31 -7q17 0 25 20h22v-145zM307 112l25 -11q-8 -16 -12 -23q36 -56 107 -56q34 0 54.5 17t20.5 46q0 24 -22 44.5t-74 42.5q-75 32 -108.5 68.5t-33.5 86.5q0 51 31 90h-84v-298q0 -60 39 -60q29 0 57 53z" />
<glyph unicode="&#x2a7;" horiz-adv-x="540" d="M341 461v32q0 85 45 137.5t129 52.5q52 0 81.5 -21t29.5 -57q0 -26 -15 -43.5t-39 -17.5q-23 0 -38 14t-15 33q0 14 9 29.5t9 18.5q0 5 -7 9.5t-16 4.5q-42 0 -42 -137v-559q0 -85 -46.5 -137.5t-130.5 -52.5q-52 0 -81.5 21t-29.5 57q0 26 15 43.5t39 17.5q23 0 38 -14 t15 -33q0 -14 -9 -29.5t-9 -18.5q0 -5 7 -9.5t16 -4.5q45 0 45 97v162q-57 -38 -89 -53t-68 -15q-52 0 -82 28.5t-30 78.5v322h-53v27q49 33 82 71.5t85 114.5h25v-169h130zM341 110v307h-130v-298q0 -60 39 -60q22 0 91 51z" />
<glyph unicode="&#x2a8;" horiz-adv-x="700" d="M211 417v-292q0 -34 8 -50t33 -16q38 0 74 12q-51 58 -51 160q0 110 68 180.5t169 70.5q66 0 110 -31t44 -79q0 -29 -18.5 -46.5t-49.5 -17.5q-26 0 -41 19t-15 54q0 18 -0.5 26t-2.5 18.5t-6 15t-12.5 7.5t-20.5 3q-38 0 -61 -44.5t-23 -124.5q0 -98 33 -159 q92 53 144 53q44 0 70.5 -23t26.5 -60q0 -42 -32.5 -73.5t-98.5 -31.5q-85 0 -127 14q-45 16 -75 35q-95 -49 -173 -49q-52 0 -82 28.5t-30 78.5v322h-53v27q49 33 82 71.5t85 114.5h25v-169h95v-44h-95zM646 93q0 21 -16 32t-37 11q-46 0 -120 -49q12 -16 45.5 -35.5 t59.5 -19.5q68 0 68 61z" />
<glyph unicode="&#x2b0;" horiz-adv-x="378" d="M365 335h-162v18q18 3 25 12.5t7 32.5v169q0 40 -7.5 56.5t-27.5 16.5q-33 0 -60 -42v-199q0 -23 7 -32.5t26 -13.5v-18h-166v18q25 5 31 12t6 37v376q0 26 -6.5 33.5t-31.5 12.5v18h134v-210q46 58 101 58q42 0 66 -28t24 -74v-188q0 -47 34 -47v-18z" />
<glyph unicode="&#x2b1;" horiz-adv-x="378" d="M365 336h-162v18q18 2 25 12.5t7 33.5v168q0 40 -7.5 56.5t-27.5 16.5q-25 0 -48 -26q-12 -12 -12 -18v-197q0 -23 7 -33t26 -13v-18h-166v18q25 5 31 12t6 37v295q0 76 27 112q30 38 93 38q44 0 71.5 -21t27.5 -54q0 -21 -12 -34.5t-31 -13.5q-17 0 -29 12.5t-12 30.5 q0 15 8 27t8 15q0 15 -21 15q-34 0 -34 -51v-141q45 58 101 58q42 0 66 -28.5t24 -73.5v-187q0 -26 8 -37t26 -11v-18z" />
<glyph unicode="&#x2b2;" horiz-adv-x="300" d="M273 807q0 -25 -18 -42t-44 -17q-25 0 -41.5 17t-16.5 42q0 26 17.5 43.5t42.5 17.5q24 0 42 -18t18 -43zM270 690v-353q0 -63 -21 -100q-34 -58 -115 -58q-48 0 -78.5 21.5t-30.5 55.5q0 20 13.5 33.5t34.5 13.5q19 0 32.5 -12.5t13.5 -29.5q0 -13 -11 -29 q-7 -10 -7 -16q0 -14 25 -14q37 0 37 59v365q0 25 -9.5 34.5t-39.5 11.5v18h156z" />
<glyph unicode="&#x2b3;" horiz-adv-x="270" d="M131 690v-60q41 69 84 69q22 0 36.5 -16.5t14.5 -41.5q0 -22 -11 -35.5t-28 -13.5q-23 0 -39 27q-7 17 -16 17q-17 0 -27.5 -21.5t-10.5 -54.5v-148q0 -35 8 -46.5t36 -12.5v-18h-165v18q20 4 26.5 12t6.5 31v230q0 25 -6.5 33.5t-27.5 12.5v18h119z" />
<glyph unicode="&#x2b4;" horiz-adv-x="292" d="M264 335h-119v60q-41 -69 -84 -69q-22 0 -36.5 16.5t-14.5 41.5q0 22 11 35.5t28 13.5q23 0 39 -27q7 -17 16 -17q17 0 27.5 21.5t10.5 54.5v148q0 35 -8 46.5t-36 12.5v18h165v-18q-20 -4 -26.5 -12t-6.5 -31v-230q0 -25 6.5 -33.5t27.5 -12.5v-18z" />
<glyph unicode="&#x2b5;" horiz-adv-x="319" d="M230 628v-380q0 -25 8 -43.5t22 -18.5q20 0 20 12q0 6 -6 16q-8 15 -8 27q0 17 10.5 28t26.5 11q17 0 28 -12.5t11 -31.5q0 -32 -25 -52.5t-63 -20.5q-66 0 -94 55q-18 32 -18 61v112q-40 -65 -81 -65q-22 0 -36.5 16t-14.5 41q0 23 11 36.5t29 13.5q24 0 39 -29 q8 -15 15 -15q16 0 27 21t11 52v148q0 37 -8 49t-36 13v18h165v-18q-21 -4 -27 -12.5t-6 -31.5z" />
<glyph unicode="&#x2b6;" horiz-adv-x="404" d="M397 684v-12q-15 0 -24 -11l-109 -142q35 -8 60 -29q26 -20 26 -59q0 -86 -162 -86h-168v12q29 2 38 11.5t9 39.5v215q0 30 -7.5 37.5t-39.5 11.5v12h184v-12q-32 -4 -39.5 -11.5t-7.5 -35.5v-98h15l113 157h112zM157 510v-126q0 -22 28 -22q38 0 54.5 17t16.5 57 q0 44 -21.5 58.5t-77.5 15.5z" />
<glyph unicode="&#x2b7;" horiz-adv-x="550" d="M528 681v-18q-14 -3 -22 -10.5t-15 -26.5l-114 -295h-17l-76 228l-92 -228h-18l-109 275q-14 35 -21 44.5t-21 12.5v18h164v-18q-28 -4 -28 -21q0 -7 29 -84l33 -87l50 126l-15 48q-5 11 -11 13.5t-22 4.5v18h173v-18q-21 -1 -28.5 -5t-7.5 -13q0 -5 20 -78 q23 -82 25 -93l26 69q33 87 33 94q0 13 -7.5 18.5t-28.5 7.5v18h100z" />
<glyph unicode="&#x2b8;" horiz-adv-x="380" d="M374 690v-18q-19 -2 -28 -10.5t-18 -32.5l-114 -305q-33 -91 -59 -120q-24 -25 -64 -25q-33 0 -54 16.5t-21 43.5q0 22 13.5 37t34.5 15q19 0 32.5 -11.5t13.5 -28.5q0 -2 -1 -7.5t-1 -8.5q0 -5 4 -9t9 -4q28 0 50 63l14 41l-91 223q-35 89 -52 113q-5 8 -26 10v18h192 v-18h-13q-27 -3 -27 -20q0 -6 15 -45l55 -143l53 144q8 23 8 38q0 14 -8.5 19.5t-32.5 6.5v18h116z" />
<glyph unicode="&#x2b9;" horiz-adv-x="208" d="M30 432l93 212q17 40 52 40q14 0 27.5 -13t13.5 -28t-19 -42l-135 -180z" />
<glyph unicode="&#x2ba;" horiz-adv-x="356" d="M19 432l93 212q17 40 52 40q14 0 27.5 -13t13.5 -28t-19 -42l-135 -180zM178 432l93 212q17 40 52 40q14 0 27.5 -13t13.5 -28t-19 -42l-135 -180z" />
<glyph unicode="&#x2bb;" horiz-adv-x="333" d="M205 685l11 -22q-109 -76 -109 -133q0 -21 19 -21q3 0 11 1t13 1q32 0 52.5 -21t20.5 -55q0 -39 -23 -62t-61 -23q-47 0 -73.5 31t-26.5 85q0 132 166 219z" />
<glyph unicode="&#x2bc;" horiz-adv-x="333" d="M57 351l-11 22q109 76 109 133q0 21 -19 21q-3 0 -11 -1t-13 -1q-32 0 -52.5 21t-20.5 55q0 39 23 62t61 23q47 0 73.5 -31t26.5 -85q0 -132 -166 -219z" />
<glyph unicode="&#x2bd;" horiz-adv-x="250" d="M216 373l-11 -22q-166 87 -166 219q0 54 26.5 85t73.5 31q38 0 61 -23t23 -62q0 -34 -20.5 -55t-52.5 -21q-5 0 -13 1t-11 1q-19 0 -19 -21q0 -57 109 -133z" />
<glyph unicode="&#x2be;" horiz-adv-x="334" d="M65 662h45q61 0 100.5 -33t39.5 -107t-39.5 -107t-100.5 -33h-45v50h45q90 0 90 90q0 38 -20.5 64t-69.5 26h-45v50z" />
<glyph unicode="&#x2bf;" horiz-adv-x="334" d="M250 382h-45q-61 0 -100.5 33t-39.5 107t39.5 107t100.5 33h45v-50h-45q-49 0 -69.5 -26t-20.5 -64q0 -90 90 -90h45v-50z" />
<glyph unicode="&#x2c0;" horiz-adv-x="353" d="M103 441h27q38 0 68 27.5t30 74.5q0 43 -12 83t-41 40q-14 0 -23.5 -8.5t-12.5 -17.5t-8 -27q-12 -49 -58 -49q-20 0 -31.5 12.5t-11.5 26.5q0 41 45 65q39 22 83 22q77 0 126 -43t49 -115q0 -66 -42.5 -118.5t-113.5 -52.5q-14 0 -25 1l-6 -122h-43v201z" />
<glyph unicode="&#x2c1;" horiz-adv-x="353" d="M217 240l-6 122q-11 -1 -25 -1q-71 0 -113.5 52.5t-42.5 118.5q0 72 49 115t126 43q44 0 83 -22q45 -24 45 -65q0 -14 -11.5 -26.5t-31.5 -12.5q-46 0 -58 49q-5 18 -8 27t-12.5 17.5t-23.5 8.5q-29 0 -41 -40t-12 -83q0 -47 30 -74.5t68 -27.5h27v-201h-43z" />
<glyph unicode="&#x2c2;" horiz-adv-x="317" d="M297 414l-267 148v50l267 148v-76l-179 -97l179 -97v-76z" />
<glyph unicode="&#x2c3;" horiz-adv-x="317" d="M297 562l-267 -148v76l179 97l-179 97v76l267 -148v-50z" />
<glyph unicode="&#x2c4;" horiz-adv-x="317" d="M332 453h-76l-97 179l-97 -179h-76l148 267h50z" />
<glyph unicode="&#x2c5;" horiz-adv-x="317" d="M332 720l-148 -267h-50l-148 267h76l97 -179l97 179h76z" />
<glyph unicode="&#x2c6;" horiz-adv-x="333" d="M335 528h-57l-112 98l-112 -98h-56l122 176h92z" />
<glyph unicode="&#x2c7;" horiz-adv-x="333" d="M335 704l-123 -176h-92l-122 176h57l111 -99l111 99h58z" />
<glyph unicode="&#x2c8;" horiz-adv-x="279" d="M167 455h-55v265h55v-265z" />
<glyph unicode="&#x2c9;" horiz-adv-x="370" d="M350 565h-330v72h330v-72z" />
<glyph unicode="&#x2ca;" horiz-adv-x="266" d="M20 528l137 157q25 28 53 28q22 0 35 -12t13 -32q0 -17 -8 -27.5t-32 -25.5l-142 -88h-56z" />
<glyph unicode="&#x2cb;" horiz-adv-x="266" d="M258 528h-56l-142 88q-40 25 -40 52q0 19 13.5 32t33.5 13q29 0 54 -28z" />
<glyph unicode="&#x2cc;" horiz-adv-x="278" d="M167 -195h-55v265h55v-265z" />
<glyph unicode="&#x2cd;" horiz-adv-x="370" d="M350 -160h-330v72h330v-72z" />
<glyph unicode="&#x2ce;" horiz-adv-x="333" d="M253 -192h-56l-142 88q-40 25 -40 52q0 19 13.5 32t33.5 13q29 0 54 -28z" />
<glyph unicode="&#x2cf;" horiz-adv-x="333" d="M80 -192l137 157q25 28 53 28q22 0 35 -12t13 -32q0 -17 -8 -27.5t-32 -25.5l-142 -88h-56z" />
<glyph unicode="&#x2d0;" horiz-adv-x="333" d="M254 474l-55 -180h-65l-55 180h175zM254 4h-175l55 180h65z" />
<glyph unicode="&#x2d1;" horiz-adv-x="333" d="M254 474l-55 -180h-65l-55 180h175z" />
<glyph unicode="&#x2d2;" horiz-adv-x="333" d="M65 378h45q64 0 111 -42t47 -116t-47 -116t-111 -42h-45v68h45q38 0 64 26t26 64t-26 64t-64 26h-45v68z" />
<glyph unicode="&#x2d3;" horiz-adv-x="333" d="M268 62h-45q-64 0 -111 42t-47 116t47 116t111 42h45v-68h-45q-37 0 -63.5 -26t-26.5 -64t26.5 -64t63.5 -26h45v-68z" />
<glyph unicode="&#x2d4;" horiz-adv-x="333" d="M281 4h-230v55h87v147h55v-147h88v-55z" />
<glyph unicode="&#x2d5;" horiz-adv-x="333" d="M281 151h-88v-147h-55v147h-87v55h230v-55z" />
<glyph unicode="&#x2d6;" horiz-adv-x="334" d="M273 85h-76v-76h-60v76h-76v66h76v76h60v-76h76v-66z" />
<glyph unicode="&#x2d7;" horiz-adv-x="334" d="M273 84h-212v66h212v-66z" />
<glyph unicode="&#x2d8;" horiz-adv-x="333" d="M274 691h44q-6 -75 -43.5 -119t-108.5 -44q-73 0 -111.5 44.5t-39.5 118.5h44q17 -87 102 -87q47 0 73.5 20t39.5 67z" />
<glyph unicode="&#x2d9;" horiz-adv-x="333" d="M231 600q0 -26 -19 -44.5t-47 -18.5q-26 0 -44.5 19t-18.5 46q0 26 19 45t45 19t45.5 -19.5t19.5 -46.5z" />
<glyph unicode="&#x2da;" horiz-adv-x="333" d="M273 645q0 -44 -31 -76t-75 -32q-45 0 -76 30.5t-31 75.5q0 44 32 75.5t76 31.5q43 0 74 -31t31 -74zM225 642q0 25 -18 42.5t-43 17.5q-22 0 -39 -17.5t-17 -40.5q0 -24 17 -41.5t40 -17.5q25 0 42.5 16.5t17.5 40.5z" />
<glyph unicode="&#x2db;" horiz-adv-x="333" d="M296 -83l23 -16q-18 -34 -54 -54t-72 -20q-47 0 -75 21.5t-28 56.5q0 28 11.5 51.5t42.5 59.5q4 6 8 10l6 6l33 12l-6 -20q-11 -39 -11 -64q0 -35 14 -49.5t47 -14.5q22 0 48 13q4 2 13 8z" />
<glyph unicode="&#x2dc;" horiz-adv-x="333" d="M306 674h43q-34 -127 -116 -127q-32 0 -65 14l-29 13q-48 22 -64 22q-19 0 -32.5 -13t-16.5 -34h-42q14 65 42 95t74 30q31 0 73 -19l40 -18q27 -12 39 -12q20 0 32 11t22 38z" />
<glyph unicode="&#x2dd;" horiz-adv-x="333" d="M187 528l136 157q25 28 54 28q22 0 35 -12t13 -32q0 -17 -8 -28.5t-32 -26.5l-141 -86h-57zM-13 528l136 157q25 28 54 28q22 0 35 -12t13 -32q0 -17 -8 -28.5t-32 -26.5l-141 -86h-57z" />
<glyph unicode="&#x2de;" horiz-adv-x="292" d="M279 342l23 -64q-16 -44 -28 -60q-25 -32 -63 -32q-40 0 -75 56q-13 23 -56 115q-12 -21 -37.5 -37t-39.5 -20l-3 55q42 28 62 53q22 28 31 73q52 -151 90 -202q19 -25 34 -25q24 0 41 32q8 14 21 56z" />
<glyph unicode="&#x2df;" horiz-adv-x="260" d="M250 550l-45 -44l-74 74l-76 -74l-45 44l75 76l-74 73l45 45l75 -73l73 73l46 -45l-74 -73z" />
<glyph unicode="&#x2e0;" horiz-adv-x="420" d="M410 667h-8q-13 0 -38 -42l-111 -189l70 -118q17 -30 17 -55q0 -34 -36 -53.5t-77 -19.5q-114 0 -114 62q0 26 22 64l50 86l-92 159q-40 71 -45 78q-17 27 -38 28v17h152v-17q-29 0 -29 -22q0 -3 15 -29l81 -139l67 113q27 46 27 53q0 24 -32 24v17h119v-17zM209 361 l-25 -44q-25 -42 -25 -62q0 -22 19 -31.5t38 -9.5q18 0 35.5 8.5t17.5 27.5q0 10 -40 77z" />
<glyph unicode="&#x2e1;" horiz-adv-x="190" d="M186 335h-180v18q20 2 29 12.5t9 34.5v375q0 46 -39 49v18h144v-442q0 -46 37 -47v-18z" />
<glyph unicode="&#x2e2;" horiz-adv-x="300" d="M262 582h-19q-16 45 -37 63q-27 25 -57 25q-22 0 -36.5 -12.5t-14.5 -32.5q0 -38 74 -68q57 -23 81.5 -51t24.5 -69q0 -52 -33 -84.5t-86 -32.5q-37 0 -83 18q-12 5 -17 5q-9 0 -21 -22h-19v127h22q24 -102 105 -102q26 0 42 13.5t16 36.5q0 19 -17 34.5t-57 32.5 q-58 25 -83.5 53.5t-25.5 66.5q0 48 34.5 80t86.5 32q26 0 60 -11q18 -6 24 -6q12 0 19 16h17v-112z" />
<glyph unicode="&#x2e3;" horiz-adv-x="380" d="M376 335h-186v18q35 3 35 16q0 11 -25 49l-33 49l-47 -63q-14 -19 -14 -32q0 -16 38 -19v-18h-130v18q21 1 37.5 15t49.5 57l50 65l-99 151q-12 18 -18.5 23t-21.5 8v18h193v-18q-36 -1 -36 -15q0 -12 15 -33l40 -56l27 36q30 39 30 49q0 14 -24 17l-16 2v18h130v-18 q-33 -5 -54 -31l-78 -97l108 -168q15 -23 29 -23v-18z" />
<glyph unicode="&#x2e4;" horiz-adv-x="328" d="M170 419v108q-7 -1 -16 -1q-59 0 -96.5 53t-37.5 118q0 72 49 115t126 43q44 0 83 -22q45 -24 45 -65q0 -14 -11.5 -26.5t-31.5 -12.5q-46 0 -58 49q-5 18 -8 27t-12.5 17.5t-23.5 8.5q-29 0 -41 -40t-12 -83q0 -47 30 -74.5t68 -27.5h27v-198q0 -31 13.5 -42t55.5 -14 v-17h-224v17q47 3 61 13t14 54z" />
<glyph unicode="&#x2e5;" horiz-adv-x="405" d="M368 0h-66v610h-262v66h328v-676z" />
<glyph unicode="&#x2e6;" horiz-adv-x="405" d="M368 0h-66v428h-262v66h262v182h66v-676z" />
<glyph unicode="&#x2e7;" horiz-adv-x="405" d="M368 0h-66v305h-262v66h262v305h66v-676z" />
<glyph unicode="&#x2e8;" horiz-adv-x="405" d="M368 0h-66v182h-262v66h262v428h66v-676z" />
<glyph unicode="&#x2e9;" horiz-adv-x="405" d="M368 0h-328v66h262v610h66v-676z" />
<glyph unicode="&#x2ec;" horiz-adv-x="314" d="M309 70l-131 -237h-43l-130 237h78l74 -136l74 136h78z" />
<glyph unicode="&#x2ed;" horiz-adv-x="395" d="M390 648h-385v72h385v-72zM390 528h-385v72h385v-72z" />
<glyph unicode="&#x300;" horiz-adv-x="0" d="M-131 528h-56l-142 88q-40 25 -40 52q0 19 13.5 32t33.5 13q29 0 54 -28z" />
<glyph unicode="&#x301;" horiz-adv-x="0" d="M-369 528l137 157q25 28 54 28q20 0 33.5 -13t13.5 -32q0 -27 -40 -52l-142 -88h-56z" />
<glyph unicode="&#x302;" horiz-adv-x="0" d="M-81 528h-57l-112 98l-112 -98h-56l122 176h92z" />
<glyph unicode="&#x303;" horiz-adv-x="0" d="M-110 674h43q-34 -127 -116 -127q-36 0 -83 22q-5 2 -20.5 9.5t-21.5 10t-15.5 5t-17.5 2.5q-19 0 -32.5 -13t-16.5 -34h-42q14 65 42 95t74 30q32 0 88 -26q52 -23 62 -23q22 0 34 11t22 38z" />
<glyph unicode="&#x304;" horiz-adv-x="0" d="M-85 565h-330v72h330v-72z" />
<glyph unicode="&#x305;" horiz-adv-x="0" d="M0 788h-500v50h500v-50z" />
<glyph unicode="&#x306;" horiz-adv-x="0" d="M-142 691h44q-6 -75 -43.5 -119t-108.5 -44q-73 0 -111.5 44.5t-39.5 118.5h44q17 -87 102 -87q47 0 73.5 20t39.5 67z" />
<glyph unicode="&#x307;" horiz-adv-x="0" d="M-185 600q0 -26 -19 -44.5t-47 -18.5q-26 0 -44.5 19t-18.5 46q0 26 19 45t45 19t45.5 -19.5t19.5 -46.5z" />
<glyph unicode="&#x308;" horiz-adv-x="0" d="M-80 600q0 -26 -19 -44.5t-47 -18.5q-26 0 -44.5 19t-18.5 46q0 26 19 45t45 19t45.5 -19.5t19.5 -46.5zM-290 600q0 -26 -18.5 -44.5t-46.5 -18.5q-26 0 -45 19t-19 46q0 26 19.5 45t45.5 19t45 -19.5t19 -46.5z" />
<glyph unicode="&#x309;" horiz-adv-x="0" d="M-292 589h18q26 0 46 19t20 45q0 72 -28 72q-11 0 -17 -10t-8 -22t-12.5 -22t-29.5 -10q-13 0 -23 8.5t-10 21.5q0 28 25.5 44t55.5 16q53 0 88.5 -26.5t35.5 -78.5q0 -50 -34.5 -81.5t-85.5 -31.5l-2 -42h-39v98z" />
<glyph unicode="&#x30a;" horiz-adv-x="0" d="M-143 645q0 -44 -31 -76t-75 -32q-45 0 -76 30.5t-31 75.5q0 44 32 75.5t76 31.5q43 0 74 -31t31 -74zM-191 642q0 25 -18 42.5t-43 17.5q-22 0 -39 -17.5t-17 -40.5q0 -24 17 -41.5t40 -17.5q25 0 42.5 16.5t17.5 40.5z" />
<glyph unicode="&#x30b;" horiz-adv-x="0" d="M-469 528l137 157q25 28 53 28q22 0 35 -12t13 -32q0 -17 -8 -27.5t-32 -25.5l-142 -88h-56zM-269 528l137 157q25 28 53 28q22 0 35 -12t13 -32q0 -17 -8 -27.5t-32 -25.5l-142 -88h-56z" />
<glyph unicode="&#x30c;" horiz-adv-x="0" d="M-81 704l-123 -176h-92l-122 176h57l111 -99l111 99h58z" />
<glyph unicode="&#x30d;" horiz-adv-x="0" d="M-211 530h-66v200h66v-200z" />
<glyph unicode="&#x30e;" horiz-adv-x="0" d="M-292 530h-66v200h66v-200zM-142 530h-66v200h66v-200z" />
<glyph unicode="&#x30f;" horiz-adv-x="0" d="M-31 528h-56l-142 88q-24 15 -32 25.5t-8 27.5q0 20 13 32t35 12q28 0 53 -28zM-231 528h-56l-142 88q-24 15 -32 25.5t-8 27.5q0 20 13 32t35 12q28 0 53 -28z" />
<glyph unicode="&#x310;" horiz-adv-x="0" d="M-185 762q0 -26 -19 -44.5t-47 -18.5q-26 0 -44.5 19t-18.5 46q0 26 19 45t45 19t45.5 -19.5t19.5 -46.5zM-142 691h44q-6 -75 -43.5 -119t-108.5 -44q-73 0 -111.5 44.5t-39.5 118.5h44q17 -87 102 -87q47 0 73.5 20t39.5 67z" />
<glyph unicode="&#x311;" horiz-adv-x="0" d="M-98 528h-44q-13 47 -39.5 67t-73.5 20q-85 0 -102 -87h-44q1 74 39.5 118.5t111.5 44.5q71 0 108.5 -44t43.5 -119z" />
<glyph unicode="&#x312;" horiz-adv-x="0" d="M-176 867l11 -22q-109 -76 -109 -133q0 -21 19 -21q3 0 11 1t13 1q32 0 52.5 -21t20.5 -55q0 -39 -23 -62t-61 -23q-47 0 -73.5 31t-26.5 85q0 132 166 219z" />
<glyph unicode="&#x313;" horiz-adv-x="0" d="M-324 532l-11 22q109 76 109 133q0 21 -19 21q-3 0 -11 -1t-13 -1q-32 0 -52.5 21t-20.5 55q0 39 23 62t61 23q47 0 73.5 -31t26.5 -85q0 -132 -166 -219z" />
<glyph unicode="&#x314;" horiz-adv-x="0" d="M-165 554l-11 -22q-166 87 -166 219q0 54 26.5 85t73.5 31q38 0 61 -23t23 -62q0 -34 -20.5 -55t-52.5 -21q-5 0 -13 1t-11 1q-19 0 -19 -21q0 -57 109 -133z" />
<glyph unicode="&#x315;" horiz-adv-x="0" d="M-98 532l-11 22q109 76 109 133q0 21 -19 21q-3 0 -11 -1t-13 -1q-32 0 -52.5 21t-20.5 55q0 39 23 62t61 23q47 0 73.5 -31t26.5 -85q0 -132 -166 -219z" />
<glyph unicode="&#x316;" horiz-adv-x="0" d="M-131 -255h-56l-142 88q-40 25 -40 52q0 19 13.5 32t33.5 13q29 0 54 -28z" />
<glyph unicode="&#x317;" horiz-adv-x="0" d="M-369 -255l137 157q25 28 54 28q20 0 33.5 -13t13.5 -32q0 -27 -40 -52l-142 -88h-56z" />
<glyph unicode="&#x318;" horiz-adv-x="0" d="M-223 -288h-55v88h-147v55h147v87h55v-230z" />
<glyph unicode="&#x319;" horiz-adv-x="0" d="M-86 -200h-147v-88h-55v230h55v-87h147v-55z" />
<glyph unicode="&#x31a;" horiz-adv-x="0" d="M-93 531h-72v149h-245v72h317v-221z" />
<glyph unicode="&#x31b;" horiz-adv-x="0" d="M-62 374h8q46 0 46 25q0 1 -10.5 7.5t-20.5 19.5t-10 30t15 33t38 16q26 0 44 -18t18 -49q0 -32 -20 -53t-52 -28q-22 -5 -56 -5v22z" />
<glyph unicode="&#x31c;" horiz-adv-x="0" d="M-190 -313h-45q-61 0 -100.5 33t-39.5 107t39.5 107t100.5 33h45v-50h-45q-49 0 -69.5 -26t-20.5 -64q0 -90 90 -90h45v-50z" />
<glyph unicode="&#x31d;" horiz-adv-x="0" d="M-135 -272h-230v55h87v147h55v-147h88v-55z" />
<glyph unicode="&#x31e;" horiz-adv-x="0" d="M-135 -125h-88v-147h-55v147h-87v55h230v-55z" />
<glyph unicode="&#x31f;" horiz-adv-x="0" d="M-144 -206h-76v-81h-60v81h-76v66h76v70h60v-70h76v-66z" />
<glyph unicode="&#x320;" horiz-adv-x="0" d="M-144 -206h-212v66h212v-66z" />
<glyph unicode="&#x321;" horiz-adv-x="0" d="M-22 75v-212q0 -76 -27 -112q-30 -38 -93 -38q-44 0 -71.5 21t-27.5 54q0 21 12 34.5t31 13.5q17 0 29 -12.5t12 -30.5q0 -15 -8 -27t-8 -15q0 -15 23 -15q21 0 38.5 13t17.5 38v288h72z" />
<glyph unicode="&#x322;" horiz-adv-x="0" d="M-22 75v-288q0 -25 17.5 -38t38.5 -13q23 0 23 15q0 3 -8 15t-8 27q0 18 12 30.5t29 12.5q19 0 31 -13.5t12 -34.5q0 -33 -27.5 -54t-71.5 -21q-63 0 -93 38q-27 36 -27 112v212h72z" />
<glyph unicode="&#x323;" horiz-adv-x="0" d="M-185 -173q0 -27 -19 -46t-47 -19q-26 0 -44.5 19t-18.5 46q0 26 18.5 45t44.5 19q27 0 46.5 -18.5t19.5 -45.5z" />
<glyph unicode="&#x324;" horiz-adv-x="0" d="M-80 -173q0 -27 -19 -46t-47 -19q-26 0 -44.5 19t-18.5 46q0 26 19 45t45 19t45.5 -19t19.5 -45zM-290 -173q0 -27 -18.5 -46t-46.5 -19q-26 0 -45 19t-19 46q0 26 19.5 45t45.5 19t45 -19.5t19 -44.5z" />
<glyph unicode="&#x325;" horiz-adv-x="0" d="M-143 -173q0 -44 -31 -75t-75 -31q-45 0 -76 31t-31 75t32 75.5t76 31.5q43 0 74 -31.5t31 -75.5zM-191 -173q0 23 -18 41t-43 18q-22 0 -39 -18t-17 -41q0 -24 17 -41t40 -17q24 0 42 17t18 41z" />
<glyph unicode="&#x326;" horiz-adv-x="0" d="M-324 -423l-11 22q109 76 109 133q0 21 -19 21q-3 0 -11 -1t-13 -1q-32 0 -52.5 21t-20.5 55q0 39 23 62t61 23q47 0 73.5 -31t26.5 -85q0 -132 -166 -219z" />
<glyph unicode="&#x327;" horiz-adv-x="0" d="M-230 0l-28 -64q15 5 32 5q42 0 65.5 -18.5t23.5 -51.5q0 -41 -35 -65t-94 -24q-46 0 -97 18l16 37l6 -2q36 -12 53 -12q58 0 58 41q0 36 -46 36q-13 0 -28 -4l-11 8l43 96h42z" />
<glyph unicode="&#x328;" horiz-adv-x="0" d="M-158 -83l23 -16q-18 -34 -54 -54t-72 -20q-47 0 -75 21.5t-28 56.5q0 28 11.5 51.5t42.5 59.5q4 6 8 10l6 6l33 12l-6 -20q-11 -39 -11 -64q0 -35 14 -49.5t47 -14.5q22 0 48 13q4 2 13 8z" />
<glyph unicode="&#x329;" horiz-adv-x="0" d="M-222 -239h-55v132h55v-132z" />
<glyph unicode="&#x32a;" horiz-adv-x="0" d="M-93 -260h-72v102h-188v-102h-72v174h332v-174z" />
<glyph unicode="&#x32b;" horiz-adv-x="0" d="M-95 -104v-44q0 -47 -27 -70.5t-70 -23.5q-47 0 -68 34q-21 -34 -61 -34q-99 0 -99 94v44h55v-45q0 -38 39 -38t39 38v45h55v-44q0 -39 41 -39t41 39v44h55z" />
<glyph unicode="&#x32c;" horiz-adv-x="0" d="M-81 -83l-123 -176h-92l-122 176h57l111 -99l111 99h58z" />
<glyph unicode="&#x32d;" horiz-adv-x="0" d="M-81 -261h-57l-112 98l-112 -98h-56l122 176h92z" />
<glyph unicode="&#x32e;" horiz-adv-x="0" d="M-142 -78h44q-6 -75 -43.5 -119t-108.5 -44q-73 0 -111.5 44.5t-39.5 118.5h44q17 -87 102 -87q47 0 73.5 20t39.5 67z" />
<glyph unicode="&#x32f;" horiz-adv-x="0" d="M-98 -241h-44q-13 47 -39.5 67t-73.5 20q-85 0 -102 -87h-44q1 74 39.5 118.5t111.5 44.5q71 0 108.5 -44t43.5 -119z" />
<glyph unicode="&#x330;" horiz-adv-x="0" d="M-110 -108h43q-34 -127 -116 -127q-36 0 -83 22q-5 2 -20.5 9.5t-21.5 10t-15.5 5t-17.5 2.5q-19 0 -32.5 -13t-16.5 -34h-42q14 65 42 95t74 30q32 0 88 -26q52 -23 62 -23q22 0 34 11t22 38z" />
<glyph unicode="&#x331;" horiz-adv-x="0" d="M-85 -209h-330v72h330v-72z" />
<glyph unicode="&#x332;" horiz-adv-x="0" d="M0 -187h-500v50h500v-50z" />
<glyph unicode="&#x333;" horiz-adv-x="0" d="M0 -287h-500v50h500v-50zM0 -187h-500v50h500v-50z" />
<glyph unicode="&#x334;" horiz-adv-x="0" d="M-110 316h43q-34 -127 -116 -127q-36 0 -83 22q-5 2 -20.5 9.5t-21.5 10t-15.5 5t-17.5 2.5q-19 0 -32.5 -13t-16.5 -34h-42q14 65 42 95t74 30q32 0 88 -26q52 -23 62 -23q22 0 34 11t22 38z" />
<glyph unicode="&#x335;" horiz-adv-x="0" d="M-108 224h-306v58h306v-58z" />
<glyph unicode="&#x336;" horiz-adv-x="0" d="M-10 224h-500v58h500v-58z" />
<glyph unicode="&#x337;" horiz-adv-x="0" d="M-43 580l-285 -654h-82l285 654h82z" />
<glyph unicode="&#x338;" horiz-adv-x="0" d="M31 662l-357 -818h-84l357 818h84z" />
<glyph unicode="&#x339;" horiz-adv-x="0" d="M-375 -33h45q61 0 100.5 -33t39.5 -107t-39.5 -107t-100.5 -33h-45v50h45q90 0 90 90q0 38 -20.5 64t-69.5 26h-45v50z" />
<glyph unicode="&#x33a;" horiz-adv-x="0" d="M-93 -245h-332v174h72v-102h188v102h72v-174z" />
<glyph unicode="&#x33b;" horiz-adv-x="0" d="M-167 -264h-186v194h186v-194zM-222 -209v84h-76v-84h76z" />
<glyph unicode="&#x33c;" horiz-adv-x="0" d="M-109 -115v-68q-36 22 -69 22q-7 0 -12.5 -2t-11 -7t-9 -8.5t-8.5 -13t-7 -13t-7.5 -15.5t-6.5 -14h-38q-2 3 -7 15t-7 16t-7 13t-9 12l-12 9q-6 5 -13.5 6.5t-17.5 1.5q-24 0 -59 -22v68q39 26 65 26q53 0 85 -53q37 53 86 53q27 0 65 -26z" />
<glyph unicode="&#x33d;" horiz-adv-x="0" d="M-150 558l-38 -38l-62 62l-62 -62l-38 38l62 62l-61 62l38 37l61 -61l61 61l39 -37l-62 -62z" />
<glyph unicode="&#x33e;" horiz-adv-x="0" d="M-189 881v-42q-21 -3 -34 -16.5t-13 -32.5q0 -8 2.5 -17.5t5 -15.5t10 -21.5t9.5 -20.5q22 -47 22 -83q0 -82 -127 -116v42q27 10 38 22.5t11 34.5q0 10 -23 62q-26 56 -26 88q0 46 30 74t95 42z" />
<glyph unicode="&#x33f;" horiz-adv-x="0" d="M0 788h-500v50h500v-50zM0 888h-500v50h500v-50z" />
<glyph unicode="&#x346;" horiz-adv-x="0" d="M-107 544h-78v95h-147v-95h-78v173h303v-173z" />
<glyph unicode="&#x34c;" horiz-adv-x="0" d="M-124 674h43q-34 -127 -116 -127q-32 0 -65 14l-29 13q-48 22 -64 22q-19 0 -32.5 -13t-16.5 -34h-42q14 65 42 95t74 30q31 0 73 -19l40 -18q27 -12 39 -12q20 0 32 11t22 38zM-124 837h43q-34 -127 -116 -127q-32 0 -65 14l-29 13q-48 22 -64 22q-19 0 -32.5 -13 t-16.5 -34h-42q14 65 42 95t74 30q31 0 73 -19l40 -18q27 -12 39 -12q20 0 32 11t22 38z" />
<glyph unicode="&#x359;" horiz-adv-x="0" d="M-89 -157q0 -25 -44 -35q-46 -11 -71 -27q31 -17 67 -26q36 -10 44 -22q3 -6 3 -14q0 -28 -27 -28q-17 0 -47 32q-28 30 -48 43q0 -20 9.5 -51t9.5 -48q0 -12 -7.5 -23.5t-21.5 -11.5t-21.5 11.5t-7.5 23.5q0 17 9 47t9 51q-24 -17 -44 -39q-32 -34 -54 -34q-27 0 -27 27 q0 12 9 20t18 11t26 7q26 6 60 24q-21 13 -59 23q-4 1 -14.5 4t-15.5 5t-12 6t-10 10.5t-3 15.5q0 12 7.5 20t17.5 8q25 0 52 -33q17 -22 49 -41q0 21 -9 53.5t-9 49.5q0 11 7 21.5t22 10.5q29 0 29 -32q0 -17 -9.5 -49.5t-9.5 -53.5q32 18 55 47q20 27 43 27 q10 0 17.5 -8.5t7.5 -21.5z" />
<glyph unicode="&#x35c;" horiz-adv-x="0" d="M256 -79h44q0 -40 -27 -71t-66 -48t-90.5 -27.5t-91 -13.5t-76.5 -3t-76 3t-90.5 13.5t-90.5 27.5t-66 48t-27 71h44q22 -87 306 -87q285 0 307 87z" />
<glyph unicode="&#x360;" horiz-adv-x="0" d="M355 656h43q-37 -127 -193 -127q-27 0 -107.5 12t-121.5 21q-156 34 -215 34q-67 0 -104 -8.5t-47 -38.5h-42q11 53 62 89t135 36q72 0 219 -33q153 -34 257 -34q37 0 54.5 2t34 13t25.5 34z" />
<glyph unicode="&#x361;" horiz-adv-x="0" d="M265 534h-29q-6 29 -44 50t-91 30.5t-94.5 13t-75.5 3.5t-75.5 -3.5t-94.5 -13t-91 -30.5t-44 -50h-29q0 40 25.5 70t62 46t86 26t86.5 12.5t74 2.5t74 -2.5t86.5 -12.5t86 -26t62 -46t25.5 -70z" />
<glyph unicode="&#x362;" horiz-adv-x="0" d="M377 -161v-24q-31 -13 -70.5 -45t-66.5 -63l-33 32q11 14 21 25l13 13q3 3 3 5q0 9 -12 9h-664v72h665q3 0 7.5 3.5t4.5 7.5q0 1 -3.5 4t-13 12.5t-21.5 24.5l34 31q26 -30 65 -62t71 -45z" />
<glyph unicode="&#x37e;" horiz-adv-x="333" d="M251 387q0 -35 -25 -59.5t-60 -24.5t-59.5 24.5t-24.5 60.5q0 35 24.5 59.5t60.5 24.5q35 0 59.5 -25t24.5 -60zM100 -180l-11 22q109 76 109 133q0 21 -19 21q-3 0 -11 -1t-13 -1q-32 0 -52.5 21t-20.5 55q0 39 23 62t61 23q47 0 73.5 -31t26.5 -85q0 -132 -166 -219z " />
<glyph unicode="&#x384;" horiz-adv-x="300" d="M118 528l61 136q12 28 47 28q37 0 37 -44q0 -15 -34 -53l-63 -67h-48z" />
<glyph unicode="&#x385;" horiz-adv-x="390" d="M392 591q0 -26 -19 -44.5t-47 -18.5q-26 0 -44.5 19t-18.5 46q0 26 19 45t45 19t45.5 -19.5t19.5 -46.5zM118 528l61 136q12 28 47 28q37 0 37 -44q0 -15 -34 -53l-63 -67h-48zM127 591q0 -26 -18.5 -44.5t-46.5 -18.5q-26 0 -45 19t-19 46q0 26 19.5 45t45.5 19 t45 -19.5t19 -46.5z" />
<glyph unicode="&#x386;" horiz-adv-x="722" d="M118 536l61 136q12 28 47 28q37 0 37 -44q0 -15 -34 -53l-63 -67h-48zM689 0h-322v25l32 3q25 2 35.5 9.5t10.5 23.5q0 29 -46 136h-225l-13 -34q-31 -80 -31 -97q0 -19 18.5 -28.5t62.5 -12.5v-25h-202v25q35 6 53 28t46 92l221 545h28l222 -522q38 -90 58.5 -116.5 t51.5 -26.5v-25zM384 236l-101 243l-94 -243h195z" />
<glyph unicode="&#x387;" horiz-adv-x="333" d="M251 387q0 -35 -25 -59.5t-60 -24.5t-59.5 24.5t-24.5 60.5q0 35 24.5 59.5t60.5 24.5q35 0 59.5 -25t24.5 -60z" />
<glyph unicode="&#x388;" horiz-adv-x="800" d="M10 536l61 136q12 28 47 28q37 0 37 -44q0 -15 -34 -53l-63 -67h-48zM791 208l-40 -208h-585v25q54 6 71 21t17 55v479q0 38 -18 53t-70 18v25h577v-201h-25q-17 100 -65.5 133.5t-171.5 33.5q-38 0 -51.5 -12t-13.5 -42v-225q81 1 117 32.5t45 116.5h26v-338h-26 q-7 88 -43 121.5t-119 33.5v-242q0 -32 17.5 -44t65.5 -12q117 0 182 54q25 20 42 46t40 77h28z" />
<glyph unicode="&#x389;" horiz-adv-x="920" d="M10 536l61 136q12 28 47 28q37 0 37 -44q0 -15 -34 -53l-63 -67h-48zM904 0h-339v25q54 6 71.5 20.5t17.5 52.5v228h-241v-228q0 -40 17 -53.5t72 -19.5v-25h-336v25q53 7 69 20.5t16 52.5v479q0 41 -17 55t-68 19v25h336v-25q-53 -4 -71 -18.5t-18 -55.5v-204h241v204 q0 41 -18 55.5t-71 18.5v25h339v-25q-51 -4 -69.5 -19t-18.5 -55v-479q0 -39 16.5 -52.5t71.5 -20.5v-25z" />
<glyph unicode="&#x38a;" horiz-adv-x="530" d="M10 536l61 136q12 28 47 28q37 0 37 -44q0 -15 -34 -53l-63 -67h-48zM516 0h-350v25q57 5 75 20t18 61v470q0 41 -19 56t-74 19v25h350v-25q-56 -2 -75.5 -17.5t-19.5 -57.5v-470q0 -48 18.5 -62.5t76.5 -18.5v-25z" />
<glyph unicode="&#x38c;" horiz-adv-x="778" d="M10 536l61 136q12 28 47 28q37 0 37 -44q0 -15 -34 -53l-63 -67h-48zM743 335q0 -156 -99.5 -255t-255.5 -99q-155 0 -254 99t-99 254q0 159 101 258t258 99q151 0 250 -100.5t99 -255.5zM566 328q0 160 -46.5 245t-134.5 85q-83 0 -128 -85.5t-45 -242.5t46 -236.5 t132 -79.5t131 80t45 234z" />
<glyph unicode="&#x38e;" horiz-adv-x="860" d="M10 536l61 136q12 28 47 28q37 0 37 -44q0 -15 -34 -53l-63 -67h-48zM846 670v-25q-18 5 -31 5q-30 0 -56 -8.5t-53.5 -32t-49 -61.5t-40 -101t-29.5 -146v-178q0 -58 16.5 -75.5t75.5 -22.5v-25h-347v25q60 5 76.5 25t16.5 78v136q0 166 -50.5 264t-141.5 98 q-29 0 -59 -10l-14 24q22 20 57.5 36t66.5 16q59 0 102 -13.5t78 -46.5t55.5 -92t27.5 -146h5q11 58 28 103q34 95 89.5 140t122.5 45q34 0 54 -12z" />
<glyph unicode="&#x38f;" horiz-adv-x="780" d="M351 0h-302v197h25q7 -48 22 -62.5t49 -14.5h153l-2 29q-98 15 -166.5 88.5t-68.5 172.5q0 121 100 201.5t249 80.5q148 0 243.5 -80.5t95.5 -204.5q0 -95 -69 -165t-166 -93l-2 -29h148q36 0 52.5 15t23.5 62h25v-197h-302l7 181q116 28 116 232q0 101 -48.5 173.5 t-132.5 72.5q-82 0 -127.5 -72t-45.5 -172q0 -206 116 -234zM10 536l61 136q12 28 47 28q37 0 37 -44q0 -15 -34 -53l-63 -67h-48z" />
<glyph unicode="&#x390;" horiz-adv-x="390" d="M245 461v-349q0 -56 24 -56t49 45l23 -12q-17 -43 -55.5 -73t-87.5 -30q-46 0 -69 26.5t-23 64.5v299q0 33 -11.5 45t-42.5 16v24h193zM392 591q0 -26 -19 -44.5t-47 -18.5q-26 0 -44.5 19t-18.5 46q0 26 19 45t45 19t45.5 -19.5t19.5 -46.5zM118 528l61 136q12 28 47 28 q37 0 37 -44q0 -15 -34 -53l-63 -67h-48zM127 591q0 -26 -18.5 -44.5t-46.5 -18.5q-26 0 -45 19t-19 46q0 26 19.5 45t45.5 19t45 -19.5t19 -46.5z" />
<glyph unicode="&#x391;" horiz-adv-x="722" d="M689 0h-322v25l32 3q25 2 35.5 9.5t10.5 23.5q0 29 -46 136h-225l-13 -34q-31 -80 -31 -97q0 -19 18.5 -28.5t62.5 -12.5v-25h-202v25q35 6 53 28t46 92l221 545h28l222 -522q38 -90 58.5 -116.5t51.5 -26.5v-25zM384 236l-101 243l-94 -243h195z" />
<glyph unicode="&#x392;" horiz-adv-x="667" d="M426 365v-1q85 -11 139 -58.5t54 -117.5q0 -83 -72 -135.5t-202 -52.5h-329v25q55 6 71.5 21t16.5 57v467q0 44 -18.5 60.5t-69.5 20.5v25h317q121 0 186.5 -41.5t65.5 -118.5q0 -59 -37 -96.5t-122 -54.5zM264 592v-219q91 0 123.5 30t32.5 106q0 137 -99 137 q-30 0 -43.5 -12.5t-13.5 -41.5zM264 343v-245q0 -36 15 -51t48 -15q58 0 89 40t31 116q0 155 -157 155h-26z" />
<glyph unicode="&#x393;" horiz-adv-x="620" d="M593 676v-202h-24q-10 57 -22 81.5t-38 47.5q-45 39 -173 39q-38 0 -54 -11.5t-16 -39.5v-490q0 -43 21 -58t89 -18v-25h-360v25q55 6 71.5 21t16.5 57v472q0 43 -18 58t-70 18v25h577z" />
<glyph unicode="&#x394;" horiz-adv-x="722" d="M357 690l316 -690h-640l296 690h28zM128 120h320l-165 359z" />
<glyph unicode="&#x395;" horiz-adv-x="667" d="M641 208l-40 -208h-585v25q54 6 71 21t17 55v479q0 38 -18 53t-70 18v25h577v-201h-25q-17 100 -65.5 133.5t-171.5 33.5q-38 0 -51.5 -12t-13.5 -42v-225q81 1 117 32.5t45 116.5h26v-338h-26q-7 88 -43 121.5t-119 33.5v-242q0 -32 17.5 -44t65.5 -12q117 0 182 54 q25 20 42 46t40 77h28z" />
<glyph unicode="&#x396;" horiz-adv-x="667" d="M634 242l-27 -242h-579v16l382 625l-83 -3q-62 -2 -96.5 -8.5t-63.5 -25t-46 -49.5t-34 -86h-28l22 207h523v-16l-379 -625h83q145 0 202 40q27 19 45 45t26.5 47t26.5 75h26z" />
<glyph unicode="&#x397;" horiz-adv-x="778" d="M759 0h-339v25q54 6 71.5 20.5t17.5 52.5v228h-241v-228q0 -40 17 -53.5t72 -19.5v-25h-336v25q53 7 69 20.5t16 52.5v479q0 41 -17 55t-68 19v25h336v-25q-53 -4 -71 -18.5t-18 -55.5v-204h241v204q0 41 -18 55.5t-71 18.5v25h339v-25q-51 -4 -69.5 -19t-18.5 -55v-479 q0 -39 16.5 -52.5t71.5 -20.5v-25z" />
<glyph unicode="&#x398;" horiz-adv-x="778" d="M743 336q0 -156 -99.5 -255t-255.5 -99q-155 0 -254 99t-99 254q0 159 101 258t258 99q151 0 250 -100.5t99 -255.5zM566 329q0 160 -46.5 245t-134.5 85q-83 0 -128 -85.5t-45 -242.5t46 -236.5t132 -79.5t131 80t45 234zM260 456h26q11 -35 21.5 -46t30.5 -11h109 q17 0 25 11.5t15 45.5h26q-12 -55 -12 -110q0 -58 14 -123h-26q-9 56 -43 56h-109q-23 0 -32 -9.5t-19 -46.5h-26q15 51 15 118q0 53 -15 115z" />
<glyph unicode="&#x399;" horiz-adv-x="389" d="M370 0h-350v25q57 5 75 20t18 61v470q0 41 -19 56t-74 19v25h350v-25q-56 -2 -75.5 -17.5t-19.5 -57.5v-470q0 -48 18.5 -62.5t76.5 -18.5v-25z" />
<glyph unicode="&#x39a;" horiz-adv-x="778" d="M769 0h-334v25q47 1 62 6t15 15q0 13 -25 45l-181 225l-27 -25v-196q0 -37 16.5 -50t70.5 -20v-25h-336v25q55 5 71 19t16 57v472q0 46 -17 60.5t-70 17.5v25h337v-25q-54 -4 -71 -20.5t-17 -63.5v-223l212 215q24 24 32 35t8 23q0 15 -10.5 22t-37.5 9l-35 3v25h289v-25 q-78 -9 -133 -46.5t-189 -180.5l305 -378q16 -20 49 -21v-25z" />
<glyph unicode="&#x39b;" horiz-adv-x="707" d="M674 25v-25h-322v25l32 3q25 2 34.5 9.5t9.5 23.5q0 23 -44 136l-108 280h-2l-114 -314q-28 -79 -28 -97q0 -20 17.5 -29t61.5 -12v-25h-202v25q35 6 53.5 28.5t45.5 91.5l213 545h28l215 -522q37 -90 58 -116.5t52 -26.5z" />
<glyph unicode="&#x39c;" horiz-adv-x="944" d="M921 0h-332v25q55 5 72 22t17 62v496l-252 -605h-27l-252 594v-465q0 -58 20 -79t81 -25v-25h-234v25q59 6 75 20.5t16 62.5v469q0 41 -17 55.5t-72 18.5v25h253l199 -472l201 472h252v-25q-55 -4 -71.5 -22.5t-16.5 -74.5v-428q0 -57 15 -76.5t73 -24.5v-25z" />
<glyph unicode="&#x39d;" horiz-adv-x="722" d="M701 676v-25q-50 -8 -64 -22.5t-14 -60.5v-586h-28l-447 545v-396q0 -58 18 -78.5t76 -27.5v-25h-226v25q55 7 71.5 22.5t16.5 61.5v470q-52 72 -85 72v25h211l349 -430v299q0 60 -18 80.5t-74 25.5v25h214z" />
<glyph unicode="&#x39e;" horiz-adv-x="647" d="M67 481v195h513v-195h-25q-8 43 -23 59t-51 16h-307q-67 0 -82 -75h-25zM141 463h25q7 -38 20 -47t50 -9h181q32 0 44.5 9.5t19.5 46.5h25v-223h-25q-7 35 -21 46t-43 11h-182q-35 0 -48.5 -10.5t-20.5 -46.5h-25v223zM40 232h25q8 -49 23.5 -67t58.5 -18h349 q48 0 63 17.5t23 67.5h25v-232h-567v232z" />
<glyph unicode="&#x39f;" horiz-adv-x="778" d="M743 335q0 -156 -99.5 -255t-255.5 -99q-155 0 -254 99t-99 254q0 159 101 258t258 99q151 0 250 -100.5t99 -255.5zM566 328q0 160 -46.5 245t-134.5 85q-83 0 -128 -85.5t-45 -242.5t46 -236.5t132 -79.5t131 80t45 234z" />
<glyph unicode="&#x3a0;" horiz-adv-x="778" d="M509 629h-241v-531q0 -40 17 -53.5t72 -19.5v-25h-336v25q53 7 69 20.5t16 52.5v479q0 41 -17 55t-68 19v25h738v-25q-51 -4 -69.5 -19t-18.5 -55v-479q0 -39 16.5 -52.5t71.5 -20.5v-25h-339v25q54 6 71.5 20.5t17.5 52.5v531z" />
<glyph unicode="&#x3a1;" horiz-adv-x="611" d="M16 676h315q128 0 198.5 -45.5t70.5 -135.5q0 -60 -33.5 -104.5t-95.5 -67.5q-32 -12 -70.5 -15.5t-138.5 -4.5v-192q0 -51 14 -65t73 -21v-25h-333v25q33 3 45 9q23 9 31 30t8 62v427q0 58 -15.5 75.5t-68.5 22.5v25zM262 606v-268q94 1 130 32t36 114q0 84 -27 120.5 t-89 36.5q-50 0 -50 -35z" />
<glyph unicode="&#x3a3;" horiz-adv-x="671" d="M306 317l-278 343v16h580v-197h-26q-22 94 -57.5 122.5t-100.5 28.5h-182l187 -240l-225 -243h256q30 0 49 3t41.5 13.5t38 34.5t26.5 63h26l-32 -261h-581v16z" />
<glyph unicode="&#x3a4;" horiz-adv-x="667" d="M636 475h-29q-13 89 -56.5 127.5t-135.5 41.5v-527q0 -57 16.5 -72t81.5 -20v-25h-357v25q64 5 80.5 20.5t16.5 71.5v527q-93 -3 -136.5 -41.5t-56.5 -127.5h-29l3 201h600z" />
<glyph unicode="&#x3a5;" horiz-adv-x="703" d="M693 670v-25q-18 5 -31 5q-30 0 -56 -8.5t-53.5 -32t-49 -61.5t-40 -101t-29.5 -146v-178q0 -58 16.5 -75.5t75.5 -22.5v-25h-347v25q60 5 76.5 25t16.5 78v136q0 166 -50.5 264t-141.5 98q-29 0 -59 -10l-14 24q22 20 57.5 36t66.5 16q121 0 185.5 -65t77.5 -233h5 q11 58 28 103q34 95 89.5 140t122.5 45q35 0 54 -12z" />
<glyph unicode="&#x3a6;" horiz-adv-x="836" d="M498 586v-22q56 -2 109.5 -15t102.5 -38.5t78.5 -70t29.5 -102.5q0 -60 -33.5 -107.5t-85 -73t-103.5 -38.5t-98 -13v-15q0 -29 21 -44.5t74 -21.5v-25h-353v25q58 4 77 19t19 47v15q-59 0 -113 12.5t-101 38.5t-75.5 73t-28.5 108q0 58 29.5 102.5t78 70t101.5 38.5 t109 15v24q0 18 -2 27t-9.5 18.5t-25.5 13.5t-48 4v25h332v-25q-29 0 -47 -5t-25.5 -15.5t-10 -20t-2.5 -24.5zM496 530v-390q58 0 104 45.5t46 139.5q0 106 -41 155.5t-109 49.5zM338 140v390q-63 0 -105.5 -50.5t-42.5 -154.5q0 -98 41.5 -141.5t106.5 -43.5z" />
<glyph unicode="&#x3a7;" horiz-adv-x="722" d="M699 0h-340v25l28 2q52 3 52 28q0 21 -21 54l-101 162l-38 -51q-56 -76 -75 -106.5t-19 -46.5q0 -19 17.5 -28t63.5 -14v-25h-250v25q37 4 59 16t45 40l175 221l-198 291q-23 34 -38 45t-42 13v25h346v-25l-31 -2q-27 -1 -37.5 -8t-10.5 -23q0 -14 15 -37l97 -150l56 77 q36 49 47 69.5t11 36.5q0 18 -11 25t-40 10l-21 2v25h250v-25q-57 -5 -90.5 -30.5t-97.5 -115.5l-80 -111l182 -283q35 -54 53 -69.5t44 -16.5v-25z" />
<glyph unicode="&#x3a8;" horiz-adv-x="808" d="M326 298v290q0 18 -2 27t-9.5 18.5t-25.5 13.5t-48 4v25h332v-25q-29 0 -47 -5t-25.5 -15.5t-10 -20t-2.5 -24.5v-288q46 0 73 48t27 113q0 84 35 142q55 91 141 91h33v-25q-24 0 -38.5 -30.5t-14.5 -59.5q0 -4 2 -38.5t2 -51.5q0 -60 -22 -105t-59.5 -69.5t-82 -36.5 t-96.5 -12v-141q0 -58 16.5 -75.5t75.5 -22.5v-25h-347v25q60 3 76.5 25t16.5 78v136q-53 0 -98 11.5t-82.5 37t-58.5 70t-21 104.5q0 8 2 43.5t2 46.5q0 32 -14 61t-41 29v25h33q86 0 142 -91q36 -59 36 -142q0 -65 27 -113t73 -48z" />
<glyph unicode="&#x3a9;" horiz-adv-x="768" d="M330 0h-302v197h25q7 -48 22 -62.5t49 -14.5h153l-2 29q-98 15 -166.5 88.5t-68.5 172.5q0 121 100 201.5t249 80.5q148 0 243.5 -80.5t95.5 -204.5q0 -95 -69 -165t-166 -93l-2 -29h148q36 0 52.5 15t23.5 62h25v-197h-302l7 181q116 28 116 232q0 101 -48.5 173.5 t-132.5 72.5q-82 0 -127.5 -72t-45.5 -172q0 -206 116 -234z" />
<glyph unicode="&#x3aa;" horiz-adv-x="389" d="M365 849q0 -26 -19 -44.5t-47 -18.5q-26 0 -44.5 19t-18.5 46q0 26 19 45t45 19t45.5 -19.5t19.5 -46.5zM155 849q0 -26 -18.5 -44.5t-46.5 -18.5q-26 0 -45 19t-19 46q0 26 19.5 45t45.5 19t45 -19.5t19 -46.5zM370 0h-350v25q57 5 75 20t18 61v470q0 41 -19 56t-74 19 v25h350v-25q-56 -2 -75.5 -17.5t-19.5 -57.5v-470q0 -48 18.5 -62.5t76.5 -18.5v-25z" />
<glyph unicode="&#x3ab;" horiz-adv-x="703" d="M693 670v-25q-18 5 -31 5q-30 0 -56 -8.5t-53.5 -32t-49 -61.5t-40 -101t-29.5 -146v-178q0 -58 16.5 -75.5t75.5 -22.5v-25h-347v25q60 5 76.5 25t16.5 78v136q0 166 -50.5 264t-141.5 98q-29 0 -59 -10l-14 24q22 20 57.5 36t66.5 16q121 0 185.5 -65t77.5 -233h5 q11 58 28 103q34 95 89.5 140t122.5 45q35 0 54 -12zM520 849q0 -26 -19 -44.5t-47 -18.5q-26 0 -44.5 19t-18.5 46q0 26 19 45t45 19t45.5 -19.5t19.5 -46.5zM310 849q0 -26 -18.5 -44.5t-46.5 -18.5q-26 0 -45 19t-19 46q0 26 19.5 45t45.5 19t45 -19.5t19 -46.5z" />
<glyph unicode="&#x3ac;" horiz-adv-x="644" d="M592 154h25q-1 -66 -27 -116t-78 -50q-69 0 -105 77q-34 -44 -73 -61.5t-93 -17.5q-94 0 -155 67t-61 173q0 110 64 178.5t166 68.5q127 0 179 -121h1l29 109h154l-129 -270q0 -8 9 -35q12 -36 22 -54t15.5 -21t14.5 -3q16 0 28 20t14 56zM361 198q-1 28 -8 66t-19 79.5 t-32 70t-44 28.5q-50 0 -68 -46.5t-18 -162.5q0 -119 18 -167.5t62 -48.5q37 0 68 59t41 122zM249 528l61 136q12 28 47 28q37 0 37 -44q0 -15 -34 -53l-63 -67h-48z" />
<glyph unicode="&#x3ad;" horiz-adv-x="444" d="M412 109l17 -18q-69 -105 -203 -105q-198 0 -198 132q0 77 88 123v1q-32 12 -51 37.5t-19 50.5q0 58 53 100.5t150 42.5q66 0 115 -26.5t49 -79.5q0 -24 -16 -41t-45 -17q-24 0 -40.5 13.5t-16.5 40.5q0 8 4 22.5t4 19.5q0 37 -65 37q-34 0 -56.5 -29.5t-22.5 -70.5 q0 -38 20.5 -61.5t53.5 -23.5q3 0 20 5.5t34 5.5q19 0 29 -7.5t10 -17.5q0 -12 -11 -21t-33 -9q-13 0 -44 9q-32 0 -59 -24t-27 -63q0 -48 30 -71.5t79 -23.5q45 0 88 19t63 50zM155 528l61 136q12 28 47 28q37 0 37 -44q0 -15 -34 -53l-63 -67h-48z" />
<glyph unicode="&#x3ae;" horiz-adv-x="585" d="M247 0h-139v346q0 56 -24 56q-23 0 -49 -48l-23 11q17 45 53.5 76.5t82.5 31.5q40 0 69 -20t29 -67h1q51 87 143 87q62 0 98 -39t36 -106v-380q0 -106 21 -153h-138q-15 28 -18.5 58t-3.5 94v372q0 87 -50 87q-37 0 -71 -34q-17 -17 -17 -24v-348zM205 528l61 136 q12 28 47 28q37 0 37 -44q0 -15 -34 -53l-63 -67h-48z" />
<glyph unicode="&#x3af;" horiz-adv-x="326" d="M208 461v-349q0 -56 24 -56t49 45l23 -12q-17 -43 -55.5 -73t-87.5 -30q-46 0 -69 26.5t-23 64.5v299q0 33 -11.5 45t-42.5 16v24h193zM87 528l61 136q12 28 47 28q37 0 37 -44q0 -15 -34 -53l-63 -67h-48z" />
<glyph unicode="&#x3b0;" horiz-adv-x="576" d="M247 381v-156q0 -52 2.5 -84.5t10 -63.5t23.5 -45.5t42 -14.5t42.5 15.5t24 47t10 64t2.5 82.5q0 88 -30.5 153t-92.5 70v24q126 0 198 -63.5t72 -180.5q0 -107 -63 -175t-163 -68q-105 0 -161 44t-56 143v182q0 47 -24 47q-23 0 -49 -48l-23 11q17 45 53.5 76.5 t82.5 31.5q40 0 69.5 -21.5t29.5 -70.5zM479 591q0 -26 -19 -44.5t-47 -18.5q-26 0 -44.5 19t-18.5 46q0 26 19 45t45 19t45.5 -19.5t19.5 -46.5zM205 528l61 136q12 28 47 28q37 0 37 -44q0 -15 -34 -53l-63 -67h-48zM214 591q0 -26 -18.5 -44.5t-46.5 -18.5q-26 0 -45 19 t-19 46q0 26 19.5 45t45.5 19t45 -19.5t19 -46.5z" />
<glyph unicode="&#x3b1;" horiz-adv-x="644" d="M592 154h25q-1 -66 -27 -116t-78 -50q-69 0 -105 77q-34 -44 -73 -61.5t-93 -17.5q-94 0 -155 67t-61 173q0 110 64 178.5t166 68.5q127 0 179 -121h1l29 109h154l-129 -270q0 -8 9 -35q12 -36 22 -54t15.5 -21t14.5 -3q16 0 28 20t14 56zM361 198q-1 28 -8 66t-19 79.5 t-32 70t-44 28.5q-50 0 -68 -46.5t-18 -162.5q0 -119 18 -167.5t62 -48.5q37 0 68 59t41 122z" />
<glyph unicode="&#x3b2;" horiz-adv-x="556" d="M66 -54v386q0 107 20 179t70 124q54 57 151 57q71 0 122.5 -40.5t51.5 -113.5q0 -84 -85 -127l-1 -2q129 -39 129 -183q0 -102 -65 -171t-161 -69q-50 0 -93 26v-66q0 -102 -20 -151h-140q13 28 17 58.5t4 92.5zM205 495v-423q27 -55 85 -55q50 0 68 43.5t18 156.5 q0 56 -13.5 98.5t-28.5 59.5t-25 17q-9 0 -22.5 -4.5t-20.5 -4.5q-19 0 -29.5 8t-10.5 18q0 27 48 27q7 0 24 -4.5t21 -4.5q10 0 16.5 27t6.5 55q0 32 -4.5 63t-20 60t-40.5 29q-41 0 -56.5 -37.5t-15.5 -128.5z" />
<glyph unicode="&#x3b3;" horiz-adv-x="518" d="M332 461h169l-202 -400q0 -4 8.5 -58.5t8.5 -86.5q0 -50 -21.5 -85.5t-62.5 -35.5q-43 0 -57 27t-14 80q0 73 61 216q-10 110 -34 169q-38 96 -92 96q-48 0 -59 -75h-25q0 28 5 55.5t15.5 53t30.5 41t47 15.5q42 0 68.5 -40t45.5 -112l29 -111z" />
</font>
</defs>
</svg>
