<?xml version="1.0" standalone="no"?>
<!DOCTYPE svg PUBLIC "-//W3C//DTD SVG 1.1//EN" "http://www.w3.org/Graphics/SVG/1.1/DTD/svg11.dtd" >
<!--
2013-9-30: Created.
-->
<svg>
<metadata>
Created by iconfont
</metadata>
<defs>

<font id="iconfont" horiz-adv-x="1024" >
  <font-face
    font-family="iconfont"
    font-weight="500"
    font-stretch="normal"
    units-per-em="1024"
    ascent="896"
    descent="-128"
  />
    <missing-glyph />
    
    <glyph glyph-name="xin" unicode="&#59463;" d="M890.88 832.512q28.672 0 52.736-10.752t41.984-29.184 28.16-43.52 10.24-53.76l0-620.544q0-28.672-10.24-53.76t-28.16-43.52-41.984-29.184-52.736-10.752l-689.152 0q-28.672 0-53.76 10.752t-43.52 29.184-29.184 43.52-10.752 53.76l0 620.544q0 28.672 10.752 53.76t29.184 43.52 43.52 29.184 53.76 10.752l689.152 0zM256 641.024q9.216 0 27.648-0.512t43.008-0.512l52.224 0 55.296 0q64.512 0 141.312 1.024l0 63.488-126.976 0 0 64.512-64.512 0 0-64.512-128 0 0-63.488zM377.856 535.552q-8.192 15.36-15.36 29.696-6.144 12.288-12.288 25.088t-9.216 20.992l-58.368-21.504 32.768-76.8zM254.976 139.264l101.376 143.36-66.56 26.624-98.304-145.408zM448.512 321.536l126.976 0 0 62.464-45.056 0-81.92 0 0 64.512q23.552 0 46.08-0.512t40.96-0.512l40.96 0 0 63.488-66.56 0q-19.456 0-40.96 1.024l68.608 65.536-68.608 32.768-20.48-98.304-257.024 0 0-63.488 35.84 0 47.104 0 53.248 0 56.32 0 0-64.512-128 0 0-62.464 40.96 0q18.432 0 40.96-0.512t46.08 0.512l0-129.024q0-16.384-2.048-27.136t-10.24-15.36-25.088-4.608-47.616 5.12q25.6-31.744 27.648-71.68 13.312 2.048 34.304 1.024t40.448 1.536 33.28 12.8 13.824 34.816l0 192.512zM568.32 210.944q-16.384 19.456-29.696 37.888-11.264 15.36-23.552 30.208t-18.432 23.04l-46.08-30.72 64.512-98.304zM896 516.096q-20.48 1.024-53.248 0.512t-63.488-1.536q-36.864-1.024-75.776-3.072l0 129.024q49.152 0 85.504 4.608t59.904 9.728q27.648 6.144 46.08 14.336-18.432 27.648-29.696 46.08-5.12 8.192-9.728 15.36t-7.68 11.264-3.584 4.608 1.536-4.608q-21.504-16.384-57.344-24.064t-69.632-10.752-57.344-3.072-21.504 0q1.024-16.384 1.536-44.032t0-77.824-1.024-129.024-0.512-196.608q0-13.312-3.072-33.28t-10.24-39.936-19.968-35.328-31.232-19.456q12.288-3.072 21.504-11.776t16.896-18.432 13.824-19.456 12.288-14.848q12.288 18.432 23.552 42.496t20.48 50.176 14.336 52.224 5.12 47.616l0 40.96 0 43.008 0 47.104 0 60.416 64.512 0 0-384 63.488 0 0 384q23.552-1.024 35.328-0.512t29.184-3.584l0 71.68z"  horiz-adv-x="1024" />

    
    <glyph glyph-name="ziti" unicode="&#59316;" d="M913.408-128l-66.56 0q-29.696 0-51.2 5.12t-36.864 15.872-26.112 27.136-19.968 37.888q-15.36 38.912-28.16 70.656t-22.016 55.296q-11.264 26.624-20.48 49.152l-254.976 0q-7.168-23.552-17.408-51.2-8.192-23.552-21.504-56.832t-30.72-72.192q-20.48-46.08-47.104-63.488t-60.416-17.408l-70.656 0q-45.056 0-60.928 19.968t2.56 68.096q18.432 46.08 43.008 108.544t52.224 132.608 57.344 143.872 57.344 144.384q65.536 164.864 137.216 343.04 7.168 17.408 18.432 31.744 10.24 11.264 27.136 21.504t42.496 10.24q26.624 0 43.52-10.752t28.16-24.064q12.288-15.36 19.456-33.792 72.704-180.224 138.24-345.088 27.648-70.656 57.344-143.872t56.832-142.336 51.2-129.536 41.472-104.448q14.336-34.816 4.096-62.464t-43.008-27.648zM616.448 261.12l-97.28 347.136-1.024 0-108.544-347.136 206.848 0z"  horiz-adv-x="1024" />

    
    <glyph glyph-name="baocun" unicode="&#58973;" d="M949.248 698.368q7.168-8.192 8.192-18.944t1.024-16.896l0-549.888q0-48.128-32.768-80.896t-87.04-32.768l-591.872 0q-55.296 0-87.552 27.648t-32.256 83.968l0 599.04q0 55.296 32.256 88.576t87.552 33.28l542.72 0q10.24 0 20.48-2.56t14.336-6.656zM768 735.232q-2.048 31.744-33.792 31.744l-446.464 0q-15.36 1.024-24.576-8.192t-9.216-21.504l0-166.912q0-10.24 4.608-20.992t12.8-19.456 18.944-14.336 23.04-5.632l389.12 0q27.648 0 46.592 16.384t18.944 49.152l0 159.744zM768 274.432q0 44.032-45.056 45.056l-422.912 0q-23.552 0-34.816-12.288t-11.264-32.768l0-149.504 514.048 0 0 149.504z"  horiz-adv-x="1024" />

    
    <glyph glyph-name="bangzhu" unicode="&#58974;" d="M514.048 841.728q95.232 0 178.688-36.352t145.92-98.304 98.304-145.408 35.84-178.688-35.84-178.176-98.304-145.408-145.92-98.304-178.688-35.84-178.176 35.84-145.408 98.304-98.304 145.408-35.84 178.176 35.84 178.688 98.304 145.408 145.408 98.304 178.176 36.352zM515.072 69.632q26.624 0 44.544 17.92t17.92 43.52q0 26.624-17.92 44.544t-44.544 17.92-44.544-17.92-17.92-44.544q0-25.6 17.92-43.52t44.544-17.92zM567.296 321.536q-1.024 16.384 20.48 34.816t48.128 40.96 49.152 50.688 24.576 65.024q2.048 39.936-8.192 74.752t-33.792 59.904-60.928 39.936-87.552 14.848q-62.464 0-103.936-22.016t-67.072-53.248-35.84-64.512-9.216-55.808q1.024-26.624 16.896-38.912t34.304-12.8 33.792 10.24 15.36 31.232q0 12.288 7.68 30.208t20.992 34.304 32.256 27.648 42.496 11.264q46.08 0 73.728-23.04t25.6-57.856q0-17.408-10.24-32.256t-26.112-28.672-33.792-27.648-33.792-28.672-26.624-32.256-11.776-37.888l1.024-38.912q0-15.36 14.336-29.184t37.888-14.848q23.552 1.024 37.376 15.36t12.8 32.768l0 24.576z"  horiz-adv-x="1024" />

    
    <glyph glyph-name="hebingdanyuan" unicode="&#58975;" d="M1024 510.976l0-189.44-169.984 0q-12.288 0-16.896-5.12t-4.608-15.36l0-26.624q0-8.192-6.656-14.336t-16.896-8.192-22.528 1.024-23.552 14.336q-29.696 28.672-60.928 65.536t-57.856 66.56q-6.144 7.168-5.12 19.456t9.216 21.504q27.648 32.768 58.368 64.512l67.584 66.56q5.12 5.12 14.848 6.656t19.456 0.512 16.896-5.12 7.168-9.216l0-15.36q0-10.24 4.608-24.064t23.04-13.824l163.84 0zM63.488 321.536l0 189.44 163.84 0q17.408 0 22.528 7.68t5.12 17.92l0 16.384q0 12.288 7.168 18.944t16.896 8.192 19.456-1.024 14.848-7.68l67.584-66.56q30.72-31.744 58.368-64.512 8.192-9.216 9.216-21.504t-6.144-19.456q-26.624-29.696-57.856-66.56t-60.928-65.536q-11.264-11.264-23.552-15.36t-22.016-2.048-16.384 9.728-6.656 20.992l0 26.624q0 10.24-4.608 12.288t-17.92 2.048l-168.96 0zM896 832.512q26.624 0 49.664-10.24t40.448-27.648 27.648-40.448 10.24-49.664l0-128-128 0 0 128-320.512 0 0-576.512 320.512 0 0 128 128 0 0-128q0-26.624-10.24-49.664t-27.648-40.448-40.448-27.648-49.664-10.24l-704.512 0q-26.624 0-49.664 10.24t-40.448 27.648-27.648 40.448-10.24 49.664l0 128 128 0 0-128 320.512 0 0 576.512-320.512 0 0-128-128 0 0 128q0 26.624 10.24 49.664t27.648 40.448 40.448 27.648 49.664 10.24l704.512 0z"  horiz-adv-x="1024" />

    
    <glyph glyph-name="zhifubao" unicode="&#59529;" d="M1368.077312 350.780416l-17.396941 14.326272c-11.256832 8.18647-24.560333 20.466074-37.863936 33.769062s-25.583718 26.605978-33.770496 37.862298l-14.326886 17.396224c-8.186778 8.18647-8.186778 22.512742 0 31.722496l14.326886 17.396224c8.186778 10.233037 19.44361 22.512742 33.770496 36.839014 13.303501 13.302989 26.607104 26.605978 37.863936 34.792448l17.396941 13.302989c8.186778 9.209754 21.490381 9.209754 30.700442 0 5.116723-5.116518 11.256832-9.209754 17.396941-14.326272 11.256832-9.209754 23.53705-20.466074 36.84055-33.769062s24.560333-25.582694 33.770496-36.839014c5.116723-6.139802 9.210163-12.279706 14.326886-17.396224 9.210163-9.209754 9.210163-23.536026 0-31.722496l-13.303501-17.396224c-8.186778-11.25632-21.490381-24.559309-34.793882-37.862298-14.326886-14.326272-26.607104-25.582694-36.84055-33.769062l-17.396941-14.326272C1389.567693 341.570662 1376.264192 341.570662 1368.077312 350.780416L1368.077312 350.780416zM2466.130944 349.757133c11.256832-11.25632 18.420326-19.44279 25.583718-27.629261 3.070054-5.116518 7.163494-9.209754 11.256832-13.302989 7.163494-7.163187 7.163494-17.396224 0-24.559309l-11.256832-13.302989c-7.163494-8.18647-14.326886-16.372941-25.583718-27.629261-11.256832-12.279706-20.466995-21.489459-27.630387-26.605978-5.116723-3.069952-9.210163-7.163187-13.303501-10.233037-8.186778-8.18647-16.373555-8.18647-24.560333 0-5.116723 3.069952-9.210163 7.163187-13.303501 10.233037-7.163494 5.116518-16.373555 14.326272-27.630387 26.605978-11.256832 11.25632-19.44361 19.44279-26.607104 27.629261-4.09344 4.093235-7.163494 8.18647-10.233446 13.302989-7.163494 7.163187-7.163494 17.396224 0 24.559309l10.233446 13.302989c7.163494 8.18647 15.350272 16.372941 26.607104 27.629261s19.44361 18.419507 27.630387 25.582694c4.09344 3.069952 8.186778 7.163187 13.303501 10.233037 8.186778 8.18647 16.373555 8.18647 24.560333 0 4.09344-3.069952 8.186778-7.163187 13.303501-10.233037C2446.687334 368.17664 2454.874112 361.013453 2466.130944 349.757133L2466.130944 349.757133zM294.584115-0.213606c-1.023386-1.023283-3.070054-1.023283-5.116723-1.023283l-16.373586 0c-150.432358 0-272.210842 70.608077-272.210842 209.777766 3.070054 119.726797 138.152141 199.54473 259.930726 194.428211 120.7552-5.116518 224.113459-51.165286 304.958054-85.957734 16.373555-7.163187 33.770496-13.302989 53.214106-20.466074 78.797926 100.284006 108.474982 200.568013 113.591706 220.010803l-444.133531 0 0 49.118698 209.786576 0 0 113.586988-291.654508 0 0 49.118698 291.654508 0 0 92.097558c0 12.279706 16.373555 19.44279 33.770496 22.512742 10.233446 2.046566 21.490381 3.069952 34.793882 3.069952l78.797885 0 0-117.680213 299.841301 0 0-49.118698-299.841301 0 0-113.586988 238.440352 0 0 1.023306c-5.116723-30.699213-13.303501-63.444992-24.560333-97.214054-19.44361-58.328474-55.260877-137.123021-116.66176-215.917568 58.330931-19.44279 122.801869-37.862298 188.296294-57.30519 41.957274-12.279706 88.007987-22.512742 138.152141-30.699213l0 424.672072c-27.630387-15.349555-53.214106-25.582694-72.657818-33.769062-11.256832-5.116518-21.490381-9.209754-30.700442-12.279706l-20.466995 30.699213c37.863936 27.629261 70.611046 55.258522 100.288205 83.911066 50.144154 50.142003 101.31159 110.517043 101.31159 165.775565 0 12.279706 16.373555 19.44279 33.770496 22.512742 10.233446 2.046566 21.490381 3.069952 34.793882 3.069952l47.074061 0 20.466983 0c0-7.163187-1.023386-15.349555-3.070054-24.559309-3.070054-15.349555-8.186778-36.839014-17.396941-60.37504-11.256832-23.536026-24.560333-49.11872-45.027328-73.678029l0-545.422204c94.148096-9.209754 196.483072-13.302989 302.911386-16.372941l0 498.350119-257.883986 0-21.490332 0 0 51.16531 21.490332 0 257.883986 0 0 145.30948c0 12.279706 16.373555 19.44279 33.770496 22.512742 9.210163 2.046566 20.466995 3.069952 33.770496 3.069952l79.821234 0 0-170.892135 77.774535 0 0-51.16531-77.774535 0 0-498.350119c144.29225 1.023283 290.631168 8.18647 430.829978 19.44279l0 253.779937-201.599783 0 0 51.16531 201.599783 0 0 128.936581-152.479023 0-16.373586 0-122.801898 0 0 187.265034c0 16.372941 33.770496 22.512742 69.587763 25.582694 20.466995 1.023283 44.004045 1.023283 69.587763 0l0-27.629267 152.479027 4.093235 0 52.188616c0 12.279706 16.373555 19.44279 33.770496 22.512742 10.233446 2.046566 21.490381 3.069952 34.793882 3.069952l15.350237 0 64.470996 0 0-72.65474 232.300237 8.18647c46.050714 0 65.494323-27.629261 66.517709-61.398323l-10.233446-83.911066c-7.163494-16.372941-13.303501-32.745779-32.747213-32.745779l-5.116746 0 0-24.559349-250.720542 0 0-128.936581 212.856623 0 0-51.16531-212.856623 0 0-240.476957c193.413018 19.44279 363.288986 45.025485 489.160909 72.654746 11.256832 3.069952 22.513664 2.046566 33.770496 5.116518 40.93399-36.839014-112.568422-121.773466-157.59575-191.358259-23.53705-37.862298-44.004045-44.002202-95.171482-47.072051-453.343642-45.025485-1133.870899-88.004301-1571.864269 55.258522-114.615091 36.839014-199.553126 76.747981-276.304282 116.656947-11.256832-11.25632-22.513664-19.44279-34.793882-30.699213C472.646861 8.996147 351.891661 2.856346 294.584115-0.213606L294.584115-0.213606zM546.327962 214.680678l16.373555 15.349555c-39.910605 21.489459-76.751155 39.908966-116.66176 57.30519-44.004045 17.396224-65.494323 27.629261-89.031373 34.792448-32.747213 7.163187-72.657818 13.302989-114.615091 13.302989l-2.046698 0c-68.564378-13.302989-144.29225-42.978816-144.29225-128.93655 0-111.540326 100.288205-142.239539 186.249523-142.239539C354.961715 64.254669 448.086426 121.559859 546.327962 214.680678L546.327962 214.680678zM2098.748621 633.212928l83.91463 0 64.470996 0 13.303539 0 147.362278 0 10.233446 78.794547c0 11.25632-9.210163 20.466074-20.466995 20.466074l-150.432358-5.116518 0-1.023306-64.47104-2.046566-83.91465-3.069952 0 1.023306-152.479027-5.116518 0-83.911108 137.128786 0L2098.748593 633.212885z"  horiz-adv-x="2778" />

    
    <glyph glyph-name="bianji" unicode="&#58976;" d="M939.3396 661.9226c-15.6231 15.6224-40.952 15.6224-56.573 0L486.7604 265.9331c-15.6231-15.6204-15.6231-40.9482 0-56.5706 15.6211-15.6204 40.95-15.6204 56.571 0l396.0081 395.9895C954.9606 620.9744 954.9606 646.3022 939.3396 661.9226zM792.6369 237.1496c-21.8901 0-39.6378-17.745-39.6378-39.6361v-198.1816328529257c0-21.8912-17.7457-39.6361-39.6378-39.6361H198.06603000491688c-21.8921 0-39.6378 17.745-39.6378 39.6361V633.512878268534c0 21.8892 17.7457 39.6361 39.6378 39.6361h396.379902382085c21.8921 0 39.6378 17.745 39.6378 39.6361 0 21.8892-17.7457 39.6361-39.6378 39.6361H158.4282396395892c-43.7822 0-79.2756-35.4919-79.2756-79.2723v-713.4542779995163c0-43.7803 35.4934-79.2743 79.2756-79.2743h594.5708529375316c43.7842 0 79.2756 35.4939 79.2756 79.2743V197.51348585658923C832.2747 219.4046 814.529 237.1496 792.6369 237.1496z"  horiz-adv-x="1000" />

    
    <glyph glyph-name="shezhi" unicode="&#58937;" d="M896.6978 400.0122l-70.2323 15.5984c-5.4715 17.4791-12.606 34.2338-20.8587 50.3509l38.0018 63.2591c14.192 22.6936 21.3274 56.033 0 77.4045l-38.7263 38.6848c-10.4294 10.4749-24.4494 14.8739-38.6004 14.8739-14.6587 0-29.4942-4.7878-40.5622-12.4805l-61.5978-39.2384c-15.9868 8.2924-32.6572 15.3876-50.0111 21.0297l-15.77 71.0378c-4.701 26.0733-27.4875 54.2832-57.7042 54.2832h-54.71314772489924c-30.2227 0-48.729-28.6376-54.7131-54.7109l-17.5708-70.1834c-18.5052-5.898-36.3329-13.4609-53.2591-22.3978L297.2497 647.7033c-11.1139 7.6938-25.9035 12.4805-40.6071 12.4805-14.106 0-28.1261-4.399-38.6004-14.8739l-38.6814-38.6848c-21.3724-21.3715-14.191-54.7109 0-77.4045l39.9635-66.5929c-7.4772-15.1317-14.146-30.6892-19.2747-47.0171l-70.1863-15.5984c-26.0734-4.7078-54.2854-27.4864-54.2854-57.7089v-54.71090600572811c0-30.2165 28.6388-48.727 54.7131-54.7109l71.0807-17.735c4.9189-15.0918 11.028-29.5779 17.9985-43.5974l-40.0085-66.6798c-14.191-22.6526-21.3324-55.992 0-77.3635l38.7263-38.6848c10.4304-10.4699 24.4494-14.9159 38.5954-14.9159 14.6637 0 29.4942 4.7878 40.5672 12.4815l63.2617 40.3496c17.0521-9.0159 34.9647-16.6707 53.6009-22.5687l17.5258-70.0135c5.9842-26.0723 24.4894-54.7109 54.7131-54.7109h54.71314772489924c30.2168 0 53.0032 28.2109 57.7042 54.2832l15.77 71.2497c17.1831 5.5612 33.6825 12.5725 49.4575 20.7329l61.7237-39.3233c11.0679-7.6938 25.9035-12.4815 40.5622-12.4815 14.151 0 28.1711 4.446 38.6004 14.9159l38.7263 38.6848c21.3274 21.3715 14.192 54.7109 0 77.3635l-38.0418 63.3461c7.6481 15.0448 14.2769 30.6882 19.6175 46.9312l71.0867 17.735c26.0744 5.9839 54.7131 24.4944 54.7131 54.7109v54.71090600572811C950.9832 372.5258 922.7722 395.3044 896.6978 400.0122zM907.2131 287.5934c0-2.1775-8.0759-9.1018-21.5433-12.2637l-71.0867-17.736-23.4641-5.858-7.5222-22.9954c-4.4452-13.5068-10.1735-27.1846-17.0122-40.6524l-11.028-21.5814 12.481-20.7729 38.4705-64.0686c6.9246-11.0735 7.6931-21.6733 6.1951-23.2123l-38.8123-38.7257c-1.8808-1.8797-6.281-2.0516-7.6082-2.0516-5.3866 0-11.5416 1.8807-15.645 4.7018l-0.6836 0.4727-0.7245 0.4687-61.6837 39.3233-21.2864 13.5928-22.3977-11.6271c-14.06-7.311-28.4679-13.335-42.7847-17.9508l-23.8518-7.7348-5.3856-24.4484-15.8159-71.2547-0.3418-1.7098c-1.624-9.0619-9.8767-18.2946-14.6187-18.2946h-54.71314772489924c-2.1826 0-9.1472 8.0755-12.2702 21.5824l-17.4799 70.0175-5.9442 23.7199-23.3391 7.397c-15.5591 4.9127-31.1582 11.4942-46.3745 19.5298l-22.4837 11.838-21.4573-13.6787-63.2617-40.3027-0.7295-0.4687-0.6846-0.4727c-4.1034-2.8211-10.2585-4.7018-15.644-4.7018-1.3222 0-5.7274 0.1719-7.6481 2.1376l-38.6864 38.6398c-1.539 1.538-0.8095 12.1378 6.5428 23.9348l40.0085 66.6798 12.3501 20.5161-10.6862 21.4575c-6.4519 12.9482-11.5406 25.3028-15.5591 37.6585l-7.5232 23.0364-23.509 5.858-71.8962 17.9528c-12.6919 2.945-20.7278 9.8703-20.7278 12.0478v54.71090600572811c0 4.7468 9.1871 12.9932 18.2494 14.6631l0.9004 0.1309 0.8545 0.2109 70.1863 15.5585 24.7063 5.4713 7.5632 24.1067c4.0634 12.8633 9.5349 26.1583 16.7164 40.6914l10.6862 21.4565-12.3561 20.5621-40.3913 67.3164c-6.9246 11.0275-7.6941 21.6683-6.1551 23.2063l38.6814 38.6848c1.8808 1.8807 5.9842 2.0516 7.6541 2.0516 5.4255 0 11.5406-1.7948 15.645-4.6159l0.6836-0.5127 0.7695-0.4677 63.1308-40.2237 21.4184-13.6318 22.4837 11.837c14.9605 7.8647 30.4746 14.4472 46.2036 19.4048l23.2132 7.437 5.9382 23.6789 17.7417 70.9979c2.9071 12.6924 9.9167 20.7279 12.0543 20.7279h54.71314772489924c4.742 0 12.9947-9.1928 14.6187-18.2546l0.1709-0.8944 0.1709-0.8544 15.77-71.0388 5.4315-24.4484 23.8518-7.6938c14.5327-4.7018 29.1055-10.8566 43.3424-18.2087l22.3977-11.6261 21.2874 13.5468 61.5518 39.2434 0.7245 0.4677 0.6836 0.5127c4.1034 2.8211 10.2595 4.6159 15.645 4.6159 1.3272 0 5.7274-0.1249 7.6931-2.0516l38.6414-38.6398c1.584-1.539 0.8145-12.2247-6.5368-23.9358l-38.0028-63.2591-12.481-20.8589 11.028-21.6283c7.7391-15.1307 13.6383-29.4071 18.0845-43.5125l7.5622-24.1916 24.7063-5.4713 70.2323-15.5585 0.8545-0.2568 0.8545-0.0849c9.0612-1.6699 18.2943-9.9163 18.2943-14.6631V287.5934116668899zM513.6218 492.5075c-96.7334 0-175.5082-78.6067-175.5082-175.2452 0-96.6435 78.7748-175.2052 175.5082-175.2052 96.8133 0 175.5492 78.5607 175.5492 175.2052C689.171 413.9008 610.4352 492.5075 513.6218 492.5075zM514.0486 184.8001c-72.9675 0-132.3817 59.2418-132.3817 131.9895 0 72.7477 59.4152 131.9495 132.3817 131.9495 72.9625 0 132.3377-59.2019 132.3377-131.9495C646.3863 244.0419 587.0111 184.8001 514.0486 184.8001z"  horiz-adv-x="1000" />

    
    <glyph glyph-name="shezhi1" unicode="&#58938;" d="M881.146 216.314V349.716l-150.814 26.407c-0.562 1.332-0.995 2.728-1.584 4.084l87.919 125.132-94.36 94.357L597.146 511.78c-1.332 0.561-2.762 0.997-4.094 1.548l-26.369 150.851H433.28l-26.37-150.851c-1.357-0.551-2.753-0.96-4.085-1.548l-125.184 87.943-94.334-94.385 87.881-125.132c-0.561-1.356-0.996-2.752-1.547-4.084l-150.788-26.407v-133.401l150.788-26.363c0.551-1.367 0.986-2.789 1.547-4.094l-87.881-125.196 94.334-94.318 125.184 87.881c1.332-0.553 2.728-0.988 4.085-1.522l26.37-150.813h133.403l26.369 150.813c1.332 0.534 2.762 0.97 4.094 1.549l125.159-87.907 94.36 94.318-87.919 125.161c0.589 1.34 1.022 2.762 1.584 4.129L881.146 216.314zM499.936 149.632c-73.621 0-133.303 59.743-133.303 133.4s59.682 133.376 133.303 133.376c73.75 0 133.4-59.719 133.4-133.376S573.686 149.632 499.936 149.632z"  horiz-adv-x="1000" />

    
    <glyph glyph-name="shuaxin" unicode="&#58977;" d="M702.2725 64.4073c-52.8855-37.5183-114.7638-56.3272-178.0214-55.4609-8.364 0.0881-16.6707 0.5274-24.875 1.2585-3.3536 0.3205-6.7092 0.8765-10.0782 1.3015-6.4604 0.8663-12.9352 1.7428-19.2215 2.9747-3.8973 0.7475-7.7046 1.7582-11.5128 2.6522-6.1676 1.4664-12.3075 2.945-18.3265 4.7606-2.901 0.9083-5.7272 1.9487-8.5985 2.9297-6.9437 2.3583-13.8588 4.7892-20.5967 7.6462-1.5227 0.6175-2.988 1.3455-4.5117 2.0367-7.852 3.5021-15.6457 7.1772-23.1465 11.308-0.3656 0.1915-0.6738 0.3523-1.0394 0.5407-25.4464 14.1527-48.7393 31.8188-69.1599 52.4605-0.3082 0.3205-0.6451 0.7035-0.981 1.0691-6.3437 6.4471-12.3935 13.185-18.1514 20.2158-1.2012 1.495-2.3736 3.1058-3.5891 4.6438-41.5601 52.6479-66.6255 119.2745-66.6255 191.7614h70.498304c1.8207 0 3.583 0.9759 4.5066 2.6911 0.9247 1.7152 0.77 3.7233-0.2314 5.2449L180.1073 504.4129c-0.9155 1.3896-2.4893 2.304-4.2762 2.304s-3.3618-0.9155-4.2762-2.304L53.0493 324.446c-1.0015-1.5217-1.1551-3.5297-0.2314-5.2449 0.9247-1.7152 2.686-2.6911 4.5076-2.6911h70.51264c0-85.2163 26.2369-164.2045 70.8147-229.5122 0.5427-0.9103 0.938-1.877 1.538-2.7863 4.6141-6.6785 9.7423-12.8461 14.6934-19.1601 1.8463-2.388 3.5748-4.8476 5.4938-7.1905 7.296-8.9661 15.0446-17.3896 23.0144-25.6225 0.7619-0.8202 1.4653-1.6251 2.2129-2.3583 26.75-27.1155 57.001-49.9702 89.9031-68.2373 0.8499-0.514 1.6998-1.0424 2.6368-1.5247 9.4781-5.1548 19.2195-9.814 29.0939-14.2244 2.4617-1.068 4.864-2.2702 7.3687-3.326 8.4388-3.5451 17.11-6.6499 25.856-9.6102 4.1308-1.4213 8.233-2.8713 12.4221-4.1738 7.6329-2.2856 15.4409-4.2045 23.3216-6.0938 5.2152-1.2308 10.3997-2.5641 15.7194-3.5891 2.2118-0.4547 4.2916-1.1438 6.4614-1.4797 7.4117-1.3332 14.8828-2.0797 22.3099-2.988 2.6808-0.3236 5.3176-0.7782 7.9995-1.0691 13.3458-1.3343 26.6465-2.2118 39.935-2.2118 81.3189 0 160.6605 25.1812 228.7196 73.4515 21.6832 15.4245 26.9722 45.6899 11.7801 67.6792C753.8964 74.5152 723.9537 79.8328 702.2725 64.4073M927.9171 316.51c-0.044 84.951-26.1202 163.7806-70.4778 228.9551-0.6451 1.1131-1.0854 2.2415-1.8156 3.2819-5.5081 7.9688-11.5313 15.3969-17.5206 22.8383-0.6881 0.9083-1.3322 1.8606-2.0654 2.7546-40.5955 49.8668-91.5589 88.3804-149.3217 113.5616-1.5985 0.7035-3.1642 1.4797-4.7749 2.1832-9.216 3.838-18.6655 7.2366-28.1559 10.4448-3.4284 1.1428-6.783 2.4023-10.284 3.4427-8.277 2.5344-16.6717 4.5998-25.1402 6.5782-4.6725 1.0988-9.345 2.2999-14.078 3.2369-2.3429 0.4547-4.5548 1.1571-6.869 1.5821-6.314 1.0988-12.6577 1.5821-18.986 2.4166-4.395 0.5571-8.6733 1.2452-13.097 1.6998-10.6353 0.9964-21.1845 1.4203-31.7307 1.6108-1.9343 0-3.7939 0.3082-5.7129 0.3082-0.3512 0-0.6728-0.1034-1.025-0.1321C445.6448 721.2142 366.4794 696.3832 298.5062 648.1723c-21.7395-15.3815-27.0285-45.6765-11.8221-67.6803 15.1767-22.0037 45.1635-27.3357 66.859-11.9091 52.5036 37.2234 113.7531 56.063 176.5704 55.4916 9.0388-0.0584 17.9313-0.512 26.7213-1.3476 2.7095-0.3082 5.3914-0.7178 8.0855-1.0547 7.2233-0.894 14.3862-1.9333 21.4456-3.3403 3.1212-0.6154 6.1983-1.4203 9.2426-2.1248 6.9304-1.5811 13.8455-3.2809 20.6131-5.3473 2.1381-0.6881 4.2465-1.4643 6.3857-2.1678 7.721-2.5631 15.3231-5.3176 22.7963-8.4675 0.7598-0.3215 1.538-0.7178 2.2702-1.025 44.7386-19.4836 83.9854-49.4715 114.603-87.0031 0.1915-0.2191 0.3799-0.513 0.5571-0.7322 43.0981-53.119 69.0432-121.0184 69.0719-194.9542h-70.528c-1.8207 0-3.583-0.9759-4.5066-2.6911s-0.77-3.7233 0.2324-5.2449l118.5321-179.9537c0.9155-1.3885 2.4893-2.304 4.2772-2.304 1.7869 0.001 3.3608 0.9165 4.2752 2.305l118.4768 179.9537c1.0025 1.5217 1.1561 3.5287 0.2314 5.2449-0.9236 1.7152-2.686 2.6911-4.5066 2.6911H927.917056L927.9171 316.51z"  horiz-adv-x="1024" />

    
    <glyph glyph-name="shuaxin1" unicode="&#58978;" d="M410.1089 552.0033c-103.5704-42.2431-166.143-140.5481-169.6532-245.59l156.6874 46.7732L267.3521 103.4053 38.9192 221.1315l74.238 31.4849c-18.6296 174.0708 77.4656 347.1237 249.045 417.1141 174.9197 71.3503 369.15 11.778 476.3443-131.6014l-125.824-51.5308C637.013 566.1028 517.9269 596.0015 410.1089 552.0033zM617.7587 42.8152c102.7779 41.9604 165.1835 139.0756 169.5406 243.156l-158.2152-48.7567 137.0378 246.2136 220.2767-111.102-71.5756-31.0323c18.1791-173.7871-77.8056-346.3864-249.045-416.2068-174.976-71.4076-369.2063-11.778-476.4006 131.543l125.824 51.5881C390.912 28.7137 509.9981-1.184 617.7587 42.8152z"  horiz-adv-x="1024" />

    
    <glyph glyph-name="bianji1" unicode="&#58981;" d="M323.608576 153.274112 366.068736 110.696192 468.333568 147.995392 360.828928 255.380224ZM513.3056 748.68096c-248.041472 0-449.069056-201.05216-449.069056-449.072128 0-247.994368 201.028608-449.069056 449.069056-449.069056 247.994368 0 449.07008 201.074688 449.07008 449.069056C962.37568 547.6288 761.299968 748.68096 513.3056 748.68096zM490.842112 125.488896l-0.239616 0.279552c-1.241088-1.040384-2.60096-1.999872-4.200448-2.56l-206.849024-75.480064c-5.398528-1.918976-11.474944-0.638976-15.471616 3.519488-4.07552 3.997696-5.397504 10.075136-3.398656 15.429632l75.399168 206.773248c0.562176 1.557504 1.440768 2.878464 2.51904 4.158464l-0.161792 0.198656L524.184576 463.509248c20.150272-20.108288 36.739072-36.658176 36.739072-36.658176l-145.522688-145.28512c-2.358272-2.279424-3.398656-5.276672-3.398656-8.31488 0-2.998272 1.040384-5.998592 3.398656-8.316928 2.280448-2.23744 5.27872-3.477504 8.395776-3.477504 3.117056 0 6.07744 1.240064 8.353792 3.477504L577.596416 410.138368l45.693952-45.617152L478.487552 219.87712c-4.557824-4.595712-4.557824-12.071936 0-16.668672 2.238464-2.200576 5.27872-3.438592 8.3968-3.438592 3.15904 0 6.115328 1.238016 8.354816 3.398656 0 0.039936 144.763904 144.643072 144.763904 144.643072s21.269504-21.269504 36.54144-36.620288L490.842112 125.488896zM751.264768 385.79072l-57.969664-57.929728c-29.78304 29.744128-98.985984 98.99008-152.357888 152.260608l58.047488 58.008576c20.789248 20.769792 54.771712 20.809728 75.522048 0l76.75904-76.8C772.054016 440.561408 772.015104 406.65984 751.264768 385.79072z"  horiz-adv-x="1024" />

    
    <glyph glyph-name="import" unicode="&#58982;" d="M320 96h-224c-17.672 0-32-14.328-32-32v-64c0-17.672 14.328-32 32-32h224v-192l320 256-320 256v-192zM640 800.022l-480-0.022c-17.672 0-32-14.326-32-32v-480h128v384h320v-224c0-17.674 14.326-32 32-32h224v-512h-192v-128h288c17.672 0 32 14.326 32 32v672.024l-320 319.998z"  horiz-adv-x="1024" />

    
    <glyph glyph-name="shanchu" unicode="&#58983;" d="M640.512 595.55712l0 76.8-258.048 0 0-76.8-171.008 0 0-73.728 601.088 0 0 73.728L640.512 595.55712zM239.104 471.65312l44.032-536.576 457.728 0 44.032 536.576L239.104 471.65312zM426.496 37.47712l-70.656 0 0 342.016 70.656 0L426.496 37.47712zM546.304 37.47712l-69.632 0 0 342.016 69.632 0L546.304 37.47712zM670.208 37.47712l-72.704 0 0 342.016 72.704 0L670.208 37.47712z"  horiz-adv-x="1024" />

    
    <glyph glyph-name="shuaxin2" unicode="&#58985;" d="M835.072 627.68l-77.824-81.92c-64.512 66.56-153.6 106.496-251.904 106.496-195.584 0-355.328-159.744-355.328-354.304 0-195.584 159.744-354.304 355.328-354.304 147.456 0 304.128 80.896 337.92 245.76 3.072 15.36-9.216 23.552-21.504 23.552l-72.704 0c-15.36 0-28.672-14.336-29.696-24.576 0-2.048 0-3.072-1.024-3.072-32.768-96.256-107.52-119.808-212.992-119.808-128 0-232.448 104.448-232.448 232.448s104.448 231.424 232.448 231.424c64.512 0 121.856-26.624 165.888-69.632l-101.376-100.352c-1.024 0-1.024-1.024-2.048-1.024-20.48-22.528-12.288-37.888 11.264-37.888l256 0c22.528 0 36.864 15.36 36.864 37.888L871.936 618.464C870.912 637.92 857.6 645.088 835.072 627.68z"  horiz-adv-x="1024" />

    
    <glyph glyph-name="print" unicode="&#58987;" d="M768 768c0 17.672-14.326 32-32 32h-448c-17.674 0-32-14.328-32-32v-96h512v96zM704 416h128v-64h-128v64zM992 608h-960c-17.672 0-32-14.328-32-32v-512c0-17.674 14.328-32 32-32h160v-224c0-17.674 14.328-32 32-32h576c17.672 0 32 14.326 32 32v224h160c17.674 0 32 14.326 32 32v512c0 17.672-14.326 32-32 32zM704-96h-384v256h384v-256zM896 160h-64v128h-640v-128h-64v320h768v-320z"  horiz-adv-x="1024" />

    
    <glyph glyph-name="shanchu1" unicode="&#58988;" d="M789.952 499.552 766.72 499.552l0-581.696-76.352 0L690.368 499.552 562.944 499.552l0-581.696L486.528-82.144 486.528 499.552l-127.36 0 0-581.696L282.688-82.144 282.688 499.552l-48.64 0c-57.536 0-104.256 0.832-104.256 0l0-607.808c0-55.936 46.656-101.248 104.256-101.248l555.904 0c57.536 0 104.192 45.312 104.192 101.248L894.144 499.552C894.144 503.84 847.488 499.552 789.952 499.552L789.952 499.552zM944.192 682.144l-228.352 0L715.84 744.288c0 36.032-64.384 65.216-101.952 65.216L410.048 809.504c-37.504 0-101.888-29.184-101.888-65.216l0-62.144L79.808 682.144c-28.672 0-51.904-22.848-51.904-50.944s23.232-50.944 51.904-50.944l864.384 0c28.672 0 51.904 22.784 51.904 50.944S972.8 682.144 944.192 682.144L944.192 682.144zM613.888 682.144 410.112 682.144 410.112 707.616l203.776 0L613.888 682.144 613.888 682.144zM613.888 682.144"  horiz-adv-x="1024" />

    
    <glyph glyph-name="shanchu2" unicode="&#59091;" d="M693.970944 580.093696c33.959936-4.780032 69.298176 1.37216 97.028096-3.345408 44.90752-7.640064 67.670016-45.82912 62.736384-102.047744-18.123776 0-36.245504 0-54.372352 0-1.531904-99.728384-0.833536-198.555648-0.833536-298.615808 0-50.50368 4.205568-103.617536-0.835584-148.888576-4.769792-42.800128-36.119552-68.866048-74.445824-75.282432-37.791744-6.326272-87.942144-1.673216-129.649664-1.673216-87.457792 0-176.078848-1.693696-261.8112 0-41.751552 0.826368-72.511488 14.076928-91.173888 39.315456-18.664448 25.23648-16.729088 63.427584-16.729088 108.737536 0 126.232576 0 251.404288 0 376.40704-17.288192 0-34.57536 0-51.861504 0-8.421376 51.725312 13.971456 88.896512 51.861504 101.211136 27.851776 9.054208 64.98304 1.7408 104.55552 4.182016-3.19488 55.675904-0.186368 97.969152 47.679488 103.72096 21.392384 2.571264 49.959936 0 76.115968 0 47.161344 0 101.813248 0 152.237056 0 29.026304 0 58.730496 2.801664 73.608192-10.037248C698.684416 655.992576 693.289984 615.026432 693.970944 580.093696zM380.29824 628.608768c0-16.729088 0-33.458176 0-50.187264 87.2704 0 174.5408 0 261.810176 0 0 17.565696 0 35.131392 0 52.696064-86.989824 0-173.983744 0-260.974592 0C380.158976 630.97728 380.225536 629.795584 380.29824 628.608768zM329.274368 468.845312c0-105.859072 0-211.275776 0-318.690304 0-27.22304-6.258688-85.224448 10.037248-97.02912 6.482944-4.697088 23.19872-5.390336 30.949376 0 16.86016 11.718656 10.873856 68.069376 10.873856 96.192512 0 108.795904 0 219.029504 0 322.036736-17.006592 0-34.016256 0-51.023872 0C329.136128 471.214848 329.201664 470.033152 329.274368 468.845312zM484.854784 468.845312c0-95.297536 0-206.577664 0-308.653056 0-24.351744-5.6576-81.993728 4.182016-98.702336 6.501376-11.03872 28.381184-16.043008 39.313408-7.529472 14.824448 11.544576 8.36608 72.590336 8.36608 97.865728 0 109.07136 0 213.696512 0 319.526912-17.007616 0-34.018304 0-51.024896 0C484.716544 471.214848 484.783104 470.033152 484.854784 468.845312zM642.108416 468.845312c0-102.566912 0-216.736768 0-322.873344 0-33.067008-6.44608-83.785728 15.055872-92.84608 9.362432-3.946496 25.977856-0.893952 30.111744 2.507776 14.038016 11.556864 7.530496 73.517056 7.530496 97.865728 0 108.521472 0 212.59264 0 317.853696-17.288192 0-34.576384 0-51.861504 0C641.970176 471.214848 642.036736 470.033152 642.108416 468.845312z"  horiz-adv-x="1024" />

    
    <glyph glyph-name="kaiqi" unicode="&#59073;" d="M323.712-55.648c0 0 24.064 152.768 15.808 167.36 0 0-33.216 24.96-30.656 57.472 0 0 8.96 57.344 61.952 49.728 0 0 54.272 7.616 60.032-59.392 0 0-3.2-32.64-30.016-46.656 0 0-1.92-124.544 15.296-168.768L340.48-56.096 324.16-148l398.4 0L722.56 340.384 568.384 340.384c0 0-9.856 144.256 0 200.128s85.76 109.504 156.096 108.16c114.88 0 171.136-67.008 182.784-124.48 3.584-16.896 0-183.872 0-183.872L998.4 340.32c0 0 3.968 141.12 0 199.168-3.904 58.048-65.152 201.152-257.536 201.152 0 0-244.224 8.256-264.256-213.568-4.8-52.032 0-185.792 0-185.792L17.728 341.28 17.728-148l350.528 0-15.36 92.032L323.712-55.648z"  horiz-adv-x="1024" />

    
    <glyph glyph-name="f14" unicode="&#58990;" d="M951.84384 39.164672 858.964992 176.534272c-3.65568 5.244928-11.283456 9.217024-20.578304 10.646528-9.218048 1.350656-19.068928 0-26.377216-3.8144L622.756864 86.277888c-8.582144-4.369408-12.314624-11.121664-9.852928-17.79712 2.622464-6.592512 11.123712-11.838464 21.92896-13.425664l49.975296-7.469056c-49.657856-58.3168-115.441664-93.751296-179.639296-93.751296-125.056 0-264.572928 137.21088-264.572928 333.852672 0 23.199744-31.14496 42.1888-69.599232 42.1888s-69.599232-18.989056-69.599232-42.1888c0-234.381312 177.334272-418.071552 403.770368-418.071552 127.916032 0 242.802688 57.759744 317.723648 157.154304l95.818752-14.45888c2.461696-0.319488 4.845568-0.477184 7.230464-0.477184 0.157696 0 0.157696 0 0.397312 0 16.446464 0 29.794304 8.024064 29.794304 17.954816C956.132352 33.285888 954.543104 36.383488 951.84384 39.164672L951.84384 39.164672zM185.933824 419.894016c-9.295872 1.429504-17.002496 5.243904-20.578304 10.645504L70.729728 570.29504c-4.289536 6.27712-2.224128 13.666304 5.08416 18.671616 7.310336 5.243904 18.910208 7.38816 29.715456 5.799936l95.8976-14.459904c74.923008 99.233792 189.80864 157.233152 317.725696 157.233152 226.435072 0 403.769344-183.770112 403.769344-418.151424 0-23.358464-31.143936-42.1888-69.600256-42.1888-38.453248 0-69.598208 18.830336-69.598208 42.1888 0 196.641792-139.437056 333.853696-264.57088 333.853696-64.196608 0-129.983488-35.434496-179.64032-93.75232l49.975296-7.469056c10.884096-1.826816 19.306496-6.832128 21.927936-13.426688 2.542592-6.674432-1.271808-13.66528-9.85088-18.034688l-189.33248-97.010688c-5.402624-2.78016-12.235776-4.13184-19.147776-4.13184C190.621696 419.416832 188.237824 419.576576 185.933824 419.894016z"  horiz-adv-x="1024" />

    
    <glyph glyph-name="daoru" unicode="&#58991;" d="M746.770899 416.033713c-29.961586 110.432135-125.559698 220.12135-251.251409 220.12135-146.023591 0-250.923937-101.875249-260.969123-264.131703-91.440249 0-170.777359-65.874313-170.777359-167.728072 0-101.876272 81.963022-240.453421 168.08493-240.453421l560.2831 0c106.432299 2.013867 168.08493 152.321174 168.08493 268.24744C960.225968 349.328475 902.884702 454.551982 746.770899 416.033713L746.770899 416.033713zM678.59647 233.88521 519.550774 78.981211c-1.969945-1.90335-4.63986-3.086291-7.551286-3.086291-2.888912 0-5.580317 1.181919-7.550262 3.086291L345.402507 233.88521c-1.050979 1.028423-1.488972 2.735297-0.94148 4.267187 0.612986 1.487887 1.969945 2.451842 3.436403 2.451842l102.864907 0-0.196483 159.805636c0 2.976798 1.072469 5.952572 3.217407 8.229428 2.188942 2.275833 5.033849 3.413749 7.878757 3.413749l100.74146 0c2.779414 0 5.624321-1.137916 7.813263-3.413749s3.238897-5.252631 3.238897-8.229428l-0.218996-159.805636 102.864907 0c1.467481 0 2.823417-0.962931 3.436403-2.451842C680.084418 236.619484 679.646425 234.912609 678.59647 233.88521L678.59647 233.88521zM678.59647 233.88521"  horiz-adv-x="1024" />

    
    <glyph glyph-name="daoru1" unicode="&#59084;" d="M746.770899 416.033713c-29.961586 110.432135-125.559698 220.12135-251.251409 220.12135-146.023591 0-250.923937-101.875249-260.969123-264.131703-91.440249 0-170.777359-65.874313-170.777359-167.728072 0-101.876272 81.963022-240.453421 168.08493-240.453421l560.2831 0c106.432299 2.013867 168.08493 152.321174 168.08493 268.24744C960.225968 349.328475 902.884702 454.551982 746.770899 416.033713L746.770899 416.033713zM678.59647 233.88521 519.550774 78.981211c-1.969945-1.90335-4.63986-3.086291-7.551286-3.086291-2.888912 0-5.580317 1.181919-7.550262 3.086291L345.402507 233.88521c-1.050979 1.028423-1.488972 2.735297-0.94148 4.267187 0.612986 1.487887 1.969945 2.451842 3.436403 2.451842l102.864907 0-0.196483 159.805636c0 2.976798 1.072469 5.952572 3.217407 8.229428 2.188942 2.275833 5.033849 3.413749 7.878757 3.413749l100.74146 0c2.779414 0 5.624321-1.137916 7.813263-3.413749s3.238897-5.252631 3.238897-8.229428l-0.218996-159.805636 102.864907 0c1.467481 0 2.823417-0.962931 3.436403-2.451842C680.084418 236.619484 679.646425 234.912609 678.59647 233.88521L678.59647 233.88521zM678.59647 233.88521"  horiz-adv-x="1024" />

    
    <glyph glyph-name="guanbi" unicode="&#58994;" d="M150.760004 662.728329C228.458002 740.427531 328.650788 790.823759 439.344997 806.7234c135.313125 19.420586 270.151813-15.048305 379.578048-97.015026 109.451522-81.992008 180.432752-201.688468 199.8714-337.025675 40.132024-279.470756-154.62052-539.387265-433.951594-579.54578-117.131613-16.806369-237.237484 7.736686-338.210562 69.040135-17.268764 10.500218-22.751274 32.998619-12.278752 50.2433 10.572467 17.138715 32.963699 22.777765 50.237279 12.28116 86.490725-52.569724 189.428982-73.591834 289.8626-59.160056 239.379673 34.33523 406.30664 257.173447 371.944919 496.746989-16.652237 115.994892-77.494495 218.574311-171.32574 288.828232-93.808366 70.281617-209.364945 99.785783-325.332142 83.109463C210.100683 699.883686 43.245965 477.018977 77.661873 237.497214c9.020313-62.702675 30.79261-121.299187 64.797902-174.121784 10.907221-17.0183 5.944905-39.719-10.939734-50.549155-16.985788-10.937325-39.637117-6.023175-50.546747 10.938529C41.279582 85.534261 15.834617 153.898865 5.263354 227.104166c-19.422994 135.315533 15.020609 270.190346 97.066805 379.641868C117.250824 626.733776 133.435849 645.40297 150.760004 662.728329L150.760004 662.728329zM150.760004 662.728329M567.228495 305.469265 725.345877 461.869523c14.367958 14.183723 14.477536 37.334776 0.290201 51.70153-14.189744 14.375183-37.373309 14.485965-51.707551 0.297426l-158.334129-156.588107L359.674596 513.684244c-14.300526 14.294505-37.411842 14.373979-51.707551 0.071045-14.299321-14.259584-14.334242-37.404617-0.071045-51.706346l155.700646-156.178694-156.985477-155.305683c-14.366754-14.228276-14.479944-37.334776-0.288997-51.707551 7.163509-7.244187 16.565538-10.859055 26.001284-10.859055 9.284023 0 18.574066 3.542619 25.703858 10.56765l157.203429 155.48149 158.481036-158.996413c7.129792-7.164713 16.492085-10.748273 25.889298-10.748273 9.361088 0 18.686052 3.58356 25.817049 10.67482 14.294505 14.261993 14.333038 37.373309 0.073453 51.707551L567.228495 305.469265 567.228495 305.469265zM567.228495 305.469265"  horiz-adv-x="1024" />

    
    <glyph glyph-name="rukushangjia" unicode="&#58880;" d="M830.178694-209.724167 191.587334-209.724167c-105.816349 0-191.587334 85.767386-191.587334 191.573153L0 620.426847c0 105.805768 85.770986 191.573153 191.587334 191.573153l638.59136 0c105.823512 0 191.606778-85.767386 191.606778-191.573153l0-638.57786C1021.785472-123.956781 936.002207-209.724167 830.178694-209.724167zM894.045915 620.426847c0 35.268248-28.578048 63.86454-63.86722 63.86454L191.587334 684.291386c-35.269728 0-63.853917-28.595268-63.853917-63.86454l0-638.57786c0-35.268248 28.584188-63.857377 63.853917-63.857377l638.59136 0c35.289172 0 63.86722 28.589129 63.86722 63.857377L894.045915 620.426847zM191.587334 365.002456l638.59136 0 0-63.86454L191.587334 301.137916 191.587334 365.002456zM191.587334 492.71107l638.59136 0 0-63.857377L191.587334 428.853693 191.587334 492.71107zM191.587334 620.426847l638.59136 0 0-63.851237L191.587334 556.57561 191.587334 620.426847zM638.616944-18.151014 383.156249-18.151014l127.721137 255.43053L638.616944-18.151014z"  horiz-adv-x="1024" />

    
    <glyph glyph-name="zan" unicode="&#59329;" d="M511.999-83.371c-251.497 0-455.39 203.885-455.39 455.371s203.893 455.371 455.39 455.371 455.39-203.885 455.39-455.371-203.893-455.371-455.39-455.371zM511.999 787.773c-229.629 0-415.79-186.155-415.79-415.773 0-229.62 186.162-415.774 415.79-415.774s415.791 186.155 415.791 415.774c0 229.619-186.162 415.773-415.791 415.773zM827.207 433.021l-69.066-220.629c-8.237-42.768-50.6-77.764-94.164-77.764l-350.205 0c-43.563 0-79.198 35.635-79.198 79.196l0 217.785c0 43.561 35.635 79.196 79.198 79.196l95.769 0 124.617 188.127c5.259 9.532 17.498 13.36 27.263 8.488l56.15-29.312c9.744-4.872 15.662-17.517 13.167-28.132l-20.167-139.171 152.403 0c43.563-0.001 72.469-34.998 64.232-77.785zM560.029 663.839l-107.554-153.18 119.271 0.204 17.807 136.986-29.525 15.99zM783.992 462.718c-4.505 5.491-11.968 8.487-21.018 8.487l-199.775-1.023 8.198 40.408-118.796 0-26.258-39.385-112.571 0c-21.83 0-39.598-17.769-39.598-39.598l0-217.786c0-21.849 17.769-39.597 39.598-39.597l73.29 0 0 296.769 39.599 0 0-296.768 237.315 0c24.768 0 50.582 21.326 55.28 45.649l69.067 220.648c1.721 8.855 0.174 16.743-4.332 22.196zM472.26 538.97l-23.196-33.769 120.074-4.776 6.481 39.227z"  horiz-adv-x="1024" />

    
    <glyph glyph-name="feiji" unicode="&#59195;" d="M895.10828 461.935l-226.983731 0.260943L536.145387 751.722012c-14.945999 25.385157-28.527876 52.449559-78.683191 52.40658-25.543793-0.034792-78.735382-0.104377-78.814179-78.81095l26.186455-262.835174-187.833502 0.208754-65.807425 109.651352c-9.648126 16.398482-21.036967 22.496363-35.086514 21.827121-7.568683-0.818645-50.129731 5.480828-50.147128-28.605501l22.654881-181.370791L65.951717 202.831824c-0.026607-24.680099 19.14889-28.438703 49.676388-29.213345 19.879561 0.025583 22.854434 7.281847 34.33947 24.75173l67.277976 106.927311 187.111018 0.322341-26.413639-262.627443c-0.069588-78.713736 53.140422-78.68099 78.665794-78.661547 50.147128 0.069585 63.807802 27.160593 78.788596 52.580542l132.996369 289.168935 226.705381 0.399089c44.709056 0.062422 88.836851 32.773428 88.897228 77.237105C984.056676 428.180222 939.80915 461.988212 895.10828 461.935zM900.328379 348.247728l-266.038789-0.478907L493.724537 46.646646c-8.7353-16.598027-26.831165-29.822213-37.062599-29.822213-29.07639-0.01842-32.50256 17.260106-31.911065 28.848025l45.065181 301.809837-284.716939-0.50449-69.39119-120.543424c0.017397 20.201088 20.018736 158.081365 20.018736 160.935366 0.008187 1.870604-19.722988 137.202848-19.714802 153.966651l66.512512-115.644857 286.987749-2.618641-44.76227 299.643498c-0.504511 9.360182 6.029567 28.891004 32.660155 28.916587 10.223248 0.00921 27.274274-13.927197 35.939986-30.508851l140.20074-299.555493 266.726479-2.418073c18.800952 0.008186 36.270528-19.374256 36.243921-35.860742C936.520109 366.796176 919.111934 348.273311 900.328379 348.247728z"  horiz-adv-x="1024" />

    
    <glyph glyph-name="tianjia2" unicode="&#59401;" d="M934.950293-60.242803 813.230196-60.242803c-11.211802 0-20.28583 9.112542-20.28583 20.286022 0 11.212366 9.074028 20.286022 20.28583 20.286022l101.433243 0 0 101.429087c0 11.211343 9.074028 20.284999 20.286853 20.284999 11.173938 0 20.286853-9.073656 20.286853-20.284999L955.237146-39.956781C955.237146-51.130262 946.124231-60.242803 934.950293-60.242803zM934.950293 183.187415c-11.212825 0-20.286853 9.113565-20.286853 20.286022L914.663439 325.189569c0 11.211343 9.074028 20.284999 20.286853 20.284999 11.173938 0 20.286853-9.073656 20.286853-20.284999l0-121.716132C955.237146 192.30098 946.124231 183.187415 934.950293 183.187415zM934.950293 426.617633c-11.212825 0-20.286853 9.113565-20.286853 20.286022L914.663439 568.619788c0 11.212366 9.074028 20.284999 20.286853 20.284999 11.173938 0 20.286853-9.072633 20.286853-20.284999l0-121.715109C955.237146 435.731198 946.124231 426.617633 934.950293 426.617633zM934.950293 670.047852c-11.212825 0-20.286853 9.112542-20.286853 20.286022l0 101.429087-101.433243 0c-11.211802 0-20.28583 9.112542-20.28583 20.286022 0 11.212366 9.074028 20.286022 20.28583 20.286022l121.720096 0c11.173938 0 20.286853-9.073656 20.286853-20.286022l0-121.714086C955.237146 679.161417 946.124231 670.047852 934.950293 670.047852zM691.5101-60.242803 569.78898-60.242803c-11.211802 0-20.284807 9.112542-20.284807 20.286022 0 11.212366 9.073004 20.286022 20.284807 20.286022l121.72112 0c11.172915 0 20.286853-9.073656 20.286853-20.286022C711.797977-51.130262 702.683015-60.242803 691.5101-60.242803zM691.5101 791.762961 569.78898 791.762961c-11.211802 0-20.284807 9.112542-20.284807 20.286022 0 11.212366 9.073004 20.286022 20.284807 20.286022l121.72112 0c11.172915 0 20.286853-9.073656 20.286853-20.286022C711.797977 800.875502 702.683015 791.762961 691.5101 791.762961zM668.68739 426.617633c22.386764 0 40.573707-18.146289 40.573707-40.571021 0-22.385846-18.186943-40.571021-40.573707-40.571021L546.967294 345.475592l0-121.716132c0-22.385846-18.186943-40.571021-40.573707-40.571021-22.425651 0-40.572683 18.185174-40.572683 40.571021L465.820904 345.475592 344.100808 345.475592c-22.426674 0-40.572683 18.185174-40.572683 40.571021 0 22.424732 18.147032 40.571021 40.572683 40.571021l121.720096 0L465.820904 548.332742c0 22.424732 18.147032 40.571021 40.572683 40.571021 22.386764 0 40.573707-18.146289 40.573707-40.571021l0-121.715109L668.68739 426.617633zM448.069907 791.762961 326.349811 791.762961c-11.212825 0-20.28583 9.112542-20.28583 20.286022 0 11.212366 9.073004 20.286022 20.28583 20.286022l121.720096 0c11.172915 0 20.286853-9.073656 20.286853-20.286022C468.356761 800.875502 459.243846 791.762961 448.069907 791.762961zM204.630738-60.242803 82.910642-60.242803c-11.213849 0-20.286853 9.112542-20.286853 20.286022L62.623789 81.759351c0 11.211343 9.073004 20.284999 20.286853 20.284999 11.192358 0 20.28583-9.073656 20.28583-20.284999l0-101.429087 101.434266 0c11.193382 0 20.28583-9.073656 20.28583-20.286022C224.916568-51.130262 215.82412-60.242803 204.630738-60.242803zM204.630738 791.762961l-101.434266 0 0-101.429087c0-11.17348-9.093471-20.286022-20.28583-20.286022-11.213849 0-20.286853 9.112542-20.286853 20.286022L62.623789 812.048983c0 11.212366 9.073004 20.286022 20.286853 20.286022l121.720096 0c11.193382 0 20.28583-9.073656 20.28583-20.286022C224.916568 800.875502 215.82412 791.762961 204.630738 791.762961zM82.910642 588.904787c11.192358 0 20.28583-9.072633 20.28583-20.284999l0-121.715109c0-11.172457-9.093471-20.286022-20.28583-20.286022-11.213849 0-20.286853 9.113565-20.286853 20.286022L62.623789 568.619788C62.623789 579.832154 71.696793 588.904787 82.910642 588.904787zM82.910642 345.475592c11.192358 0 20.28583-9.073656 20.28583-20.284999l0-121.716132c0-11.172457-9.093471-20.286022-20.28583-20.286022-11.213849 0-20.286853 9.113565-20.286853 20.286022L62.623789 325.189569C62.623789 336.400912 71.696793 345.475592 82.910642 345.475592zM326.349811-19.669736l121.720096 0c11.172915 0 20.286853-9.073656 20.286853-20.286022 0-11.17348-9.112915-20.286022-20.286853-20.286022L326.349811-60.24178c-11.212825 0-20.28583 9.112542-20.28583 20.286022C306.063981-28.744415 315.136986-19.669736 326.349811-19.669736z"  horiz-adv-x="1024" />

    
    <glyph glyph-name="settings2" unicode="&#58939;" d="M883.052075 205.274592l75.89362 0L958.945695 396.824209l-75.89362 0c-76.979393 0-95.312693 44.465724-41.028114 98.804307l53.743227 53.735855L760.295204 684.774387l-53.68592-53.683666c-54.393054-54.390771-98.912835-35.950793-98.751146 40.916898 0 0.218988-0.109498 0.331551-0.109498 0.494257L607.74864 747.950242 416.277967 747.950242l0-76.160587c-0.217973-76.706009-44.576066-95.037517-98.891345-40.698934l-53.711503 53.683666L128.258396 549.365394l53.68592-53.735855c54.37054-54.338582 35.926719-98.804307-40.918616-98.804307L65.054305 396.825232l0-191.549617 75.971394 0c76.850451 0 95.290179-44.461631 40.923733-98.856495l-53.68592-53.683666L263.679212-82.726751l53.711503 53.735855c54.314256 54.286394 98.673372 35.953863 98.891345-40.698934l0-76.213799 191.470673 0 0 75.453483c0 0.161682 0.113592 0.327458 0.113592 0.48914-0.166806 76.867692 44.353999 95.255481 98.751146 40.974203l53.68592-53.740972L895.771281 52.738523l-53.739134 53.683666C787.739382 160.813984 806.072682 205.274592 883.052075 205.274592L883.052075 205.274592zM512 133.426217c-92.557837 0-167.605147 75.070766-167.605147 167.598112s75.046287 167.598112 167.605147 167.598112c92.53123 0 167.605147-75.070766 167.605147-167.598112S604.53123 133.426217 512 133.426217L512 133.426217zM512 133.426217"  horiz-adv-x="1024" />

    
    <glyph glyph-name="tubiao" unicode="&#58940;" d="M910.33344 391.9296l-84.82048 17.00224c-4.27136 12.27136-9.30048 24.16512-14.86592 35.68l48.06016 72.06272c14.6496 21.94816 11.7312 51.19616-6.92096 69.84704l-53.24928 53.25056c-10.70464 10.70336-24.86912 16.2176-39.1936 16.2176-10.59712 0-21.30176-3.05408-30.65344-9.2992l-72.064-48.032c-11.56864 5.59616-23.4624 10.56896-35.73504 14.83904l-16.9728 84.84864c-5.13792 25.89568-27.8976 44.51968-54.2784 44.51968l-75.30752 0c-26.3808 0-49.08544-18.624-54.27584-44.51968l-16.97536-84.84864c-12.27136-4.27008-24.16512-9.27104-35.68-14.83904l-72.06272 48.032c-9.40672 6.24512-20.0832 9.2992-30.7072 9.2992-14.29888 0-28.46336-5.51424-39.16672-16.2176l-53.25056-53.25056c-18.65088-18.65088-21.57056-47.8976-6.91968-69.84704l48.032-72.06272c-5.59616-11.54304-10.56896-23.4368-14.83904-35.70816L113.6384 391.9296C87.74272 386.76736 69.12 364.03456 69.12 337.65376l0-75.30752c0-26.37952 18.624-49.11232 44.51968-54.27456l84.84864-17.00224c4.27008-12.27264 9.27104-24.16768 14.83904-35.68256l-48.032-72.06016c-14.65088-21.94944-11.7312-51.19744 6.91968-69.84704l53.25056-53.25312c10.70336-10.70208 24.86784-16.21504 39.16672-16.21504 10.62272 0 21.32736 3.0528 30.7072 9.29792l72.06272 48.032c11.51488-5.59488 23.40864-10.57024 35.68-14.84032l16.97536-84.84992c5.1904-25.89312 27.89504-44.51712 54.27584-44.51712l75.30752 0c26.3808 0 49.14176 18.62528 54.2784 44.51712l17.02912 84.84992c12.27136 4.27008 24.16512 9.27232 35.67872 14.84032l72.064-48.032c9.35296-6.24512 20.05632-9.29792 30.65344-9.29792 14.32448 0 28.48896 5.51296 39.1936 16.21504l53.24928 53.25312c18.65216 18.6496 21.57184 47.8976 6.92096 69.84704l-48.06016 72.06016c5.62176 11.54304 10.59456 23.43808 14.86592 35.70688l84.82048 16.97792c25.89568 5.16224 44.54784 27.89504 44.54784 54.27456l0 75.30752C954.88128 364.03456 936.2304 386.76736 910.33344 391.9296zM814.64704 245.3696c-19.24608-3.83744-34.97856-17.57056-41.41056-36.08448-3.56864-10.21696-7.7312-20.13696-12.38144-29.76-8.59648-17.65248-7.13472-38.51776 3.7312-54.84544l48.06016-72.06272-53.25184-53.25056-72.06272 48.032c-9.24544 6.16192-19.9488 9.29792-30.7072 9.29792-8.21632 0-16.48768-1.83808-24.11008-5.51296-9.62432-4.65024-19.51616-8.83968-29.78688-12.40704-18.48832-6.43456-32.22016-22.19264-36.06016-41.41056l-17.02912-84.87808-75.30752 0-16.97536 84.87808c-3.83744 19.21792-17.56928 34.97472-36.0576 41.41056-10.21824 3.56736-20.16512 7.7056-29.78688 12.38016-7.6224 3.70304-15.89376 5.53984-24.11136 5.53984-10.75712 0-21.46304-3.13472-30.70592-9.29792l-72.09088-48.032-53.25056 53.25056 48.03328 72.06272c10.86592 16.32768 12.29824 37.16736 3.78496 54.81728-4.64896 9.59488-8.83968 19.51744-12.40704 29.76256-6.43328 18.5152-22.19264 32.24448-41.41184 36.08448L124.5056 262.34496l-0.02688 75.30752 84.87552 16.97408c19.2192 3.83872 34.97728 17.57056 41.41184 36.08576 3.56736 10.21696 7.70432 20.13824 12.38016 29.76 8.56832 17.6512 7.136 38.51904-3.75808 54.84416l-48.03328 72.064 53.25056 53.25056 72.09088-48.03328c9.24416-6.16192 19.9488-9.2992 30.70592-9.2992 8.2176 0 16.43392 1.83808 24.11136 5.51424 9.56928 4.64896 19.51616 8.83968 29.73184 12.40704 18.54336 6.43328 32.2752 22.19264 36.11264 41.41184l16.97536 84.84864 75.30752 0.02688 16.97536-84.87552c3.83872-19.2192 17.57056-34.97728 36.11392-41.41184 10.21568-3.56736 20.11008-7.70432 29.73312-12.38016 7.67744-3.70304 15.89376-5.54112 24.16512-5.54112 10.7584 0 21.46304 3.136 30.7072 9.2992l72.06272 48.03328 53.25184-53.25056-48.06016-72.064c-10.86592-16.32512-12.27264-37.16608-3.78496-54.81728 4.65024-9.59744 8.86656-19.51616 12.4352-29.76128 6.43072-18.5152 22.1632-32.24704 41.41056-36.08448l84.82176-17.00224 0.05504-75.30752L814.64704 245.3696zM512.01408 493.7536c-106.98624 0-193.75488-86.76736-193.75488-193.75488s86.76864-193.75488 193.75488-193.75488S705.76768 193.01248 705.76768 300 619.00032 493.7536 512.01408 493.7536zM512.01408 130.46528c-93.632 0-169.53472 75.92704-169.53472 169.53472s75.90272 169.53472 169.53472 169.53472c93.57952 0 169.53472-75.92832 169.53472-169.53472S605.5936 130.46528 512.01408 130.46528zM512.01408 410.71616c-61.1968 0-110.71744-49.54624-110.71744-110.71744 0-61.16992 49.52064-110.71744 110.71744-110.71744 61.14304 0 110.71744 49.54752 110.71744 110.71744C622.73152 361.16992 573.15584 410.71616 512.01408 410.71616zM512.01408 216.96256c-45.8432 0-83.03872 37.19296-83.03872 83.03744 0 45.8432 37.19424 83.03872 83.03872 83.03872 45.84448 0 83.03744-37.19424 83.03744-83.03872C595.05152 254.15552 557.85856 216.96256 512.01408 216.96256z"  horiz-adv-x="1024" />

    
    <glyph glyph-name="guanbi1" unicode="&#58996;" d="M512-212c-247.424 0-448 200.576-448 448 0 178.368 105.024 330.624 256 402.304l0-147.648C242.624 432.352 192 340.384 192 236c0-176.704 143.296-320 320-320s320 143.296 320 320c0 104.384-50.624 196.352-128 254.656L704 638.304c150.976-71.744 256-224 256-402.304C960-11.424 759.424-212 512-212zM576 364c0-35.328-28.672-64-64-64C476.672 300 448 328.608 448 364L448 748c0 35.328 28.672 64 64 64 35.328 0 64-28.672 64-64L576 364z"  horiz-adv-x="1024" />

    
    <glyph glyph-name="daoru2" unicode="&#58997;" d="M734.569364 436.703202c1.444963 1.338482 1.999616 3.474118 1.237224 5.417372-0.761369 1.948371-2.62181 3.134381-4.592773 3.134381L593.811321 445.254955l0.295747 224.813783c0.005117 3.792365-1.43473 7.586777-4.32875 10.480681-2.889926 2.894927-6.683467 4.344949-10.477007 4.344949L444.723249 684.894368c-3.788423 0-7.581964-1.450022-10.477007-4.344949-2.888903-2.893904-4.329773-6.688316-4.32568-10.480681l0.274256-224.813783L292.786185 445.254955c-1.966869 0-3.826287-1.184986-4.593796-3.134381-0.762392-1.943255-0.206716-4.07889 1.239271-5.417372L501.930285 239.650638c2.645347-2.447744 6.181004-3.949954 10.066645-3.949954 3.888711 0 7.427438 1.503234 10.067669 3.949954L734.569364 436.703202 734.569364 436.703202zM946.221682 186.539105 813.000576 289.46406c-7.54717 5.888092-21.554717 10.705808-31.126063 10.705808l-77.131564 0 127.577358-127.750314L704.317237 172.506536l-64.341797-92.866899L383.45865 79.639637 319.795331 172.506536l-126.723889-0.255826 127.577358 127.919159-78.572434 0c-9.57237 0-23.579917-4.817716-31.127087-10.705808L77.727151 186.539105c-7.54717-5.889115-11.288519-18.151369-8.314679-27.25059l53.146402-162.622473c2.973841-9.099221 13.239015-16.543758 22.811385-16.543758l734.23473 0c9.57237 0 19.801727 7.455794 22.73361 16.568318l52.278606 162.572331C957.546019 168.37648 953.768852 180.64999 946.221682 186.539105z"  horiz-adv-x="1024" />

    
    <glyph glyph-name="rukuguanli" unicode="&#58881;" d="M796.231133 29.004983 538.972414 29.004983c-18.750826 0-32.479055 2.084475-42.966337 12.458753-9.197862 9.099239-15.423918 23.948435-22.2077 52.968375-29.616748 126.689401-122.091694 508.072551-123.022941 511.910972-10.793263 47.14781-20.747381 72.579015-32.290759 82.523505-4.587674 3.952009-9.547848 5.830799-17.119608 6.482645l0.878034 10.1952c6.497244-0.558725 14.973645-2.079358 22.919951-8.925277 13.663758-11.771091 23.969907-37.245276 35.57264-87.928608 0.915897-3.773953 93.401077-385.199059 123.027035-511.929392 12.126687-51.870368 21.899672-57.522088 55.209687-57.522088l257.258719 0L796.231133 29.004983 796.231133 29.004983zM841.442698 108.337819 470.834757 108.337819 382.977163 473.762509 543.776014 473.762509 543.776014 463.529447 395.963463 463.529447 478.899772 118.570881 834.310978 118.570881 961.608449 463.529447 808.390568 463.529447 808.390568 473.762509 976.293509 473.762509ZM544.234475-80.1296c-32.911932 0-59.686839 26.774807-59.686839 59.685357s26.775931 59.685357 59.686839 59.685357c32.911932 0 59.687863-26.774807 59.687863-59.685357S577.146407-80.1296 544.234475-80.1296zM544.234475 29.009076c-27.268161 0-49.453348-22.184255-49.453348-49.452295s22.185186-49.452295 49.453348-49.452295c27.269185 0 49.454371 22.184255 49.454371 49.452295S571.50366 29.009076 544.234475 29.009076zM795.461574-80.1296c-32.911932 0-59.687863 26.774807-59.687863 59.685357s26.775931 59.685357 59.687863 59.685357c32.910909 0 59.686839-26.774807 59.686839-59.685357S828.372483-80.1296 795.461574-80.1296zM795.461574 29.009076c-27.269185 0-49.454371-22.184255-49.454371-49.452295s22.185186-49.452295 49.454371-49.452295c27.268161 0 49.453348 22.184255 49.453348 49.452295S822.729736 29.009076 795.461574 29.009076zM284.622052 671.95543 97.566108 671.95543c-10.911972 0-19.788503 9.810437-19.788503 21.8701l0 12.212136c0 12.05864 8.877554 21.8701 19.788503 21.8701l187.055944 0c10.911972 0 19.788503-9.810437 19.788503-21.8701l0-12.212136C304.410555 681.765867 295.533001 671.95543 284.622052 671.95543zM97.566108 717.673681c-5.268201 0-9.555011-5.219885-9.555011-11.637038l0-12.212136c0-6.417153 4.28681-11.637038 9.555011-11.637038l187.055944 0c5.268201 0 9.555011 5.220908 9.555011 11.637038L294.177063 706.036643c0 6.417153-4.28681 11.637038-9.555011 11.637038L97.566108 717.673681zM671.082695 715.957597l10.233491 0 0-482.594273-10.233491 0 0 482.594273ZM677.168553 222.852946 548.946998 347.546899 555.875071 354.670134 677.110222 236.770933 677.169576 236.707488 798.469198 354.66911 805.396248 347.545876 677.174693 222.851922Z"  horiz-adv-x="1024" />

    
    <glyph glyph-name="baocun1" unicode="&#59012;" d="M867.097-148.73c-236.782 0-473.561 0-710.319 0-1.621 0.57-3.219 1.368-4.881 1.662-41.11 7.36-68.489 30.932-82.43 70.13-2.399 6.751-3.64 13.94-5.426 20.924 0 236.778 0 473.558 0 710.32 0.566 1.638 1.345 3.215 1.662 4.897 8.433 45.148 35.242 73.16 79.338 84.998 3.893 1.052 7.823 1.894 11.737 2.838 203.532 0 407.047 0 610.579 0 25.424-5.612 45.38-20.776 63.487-38.124 30.071-28.829 59.594-58.25 88.509-88.258 18.188-18.861 34.527-39.428 40.456-66.068 0-203.536 0-407.071 0-610.603-0.565-1.62-1.344-3.198-1.66-4.88-8.434-45.168-35.223-73.157-79.34-85.019C874.939-146.943 871.006-147.804 867.097-148.73zM511.989-114.452c101.755 0 203.491-0.024 305.228 0.04 25.886 0 39.532 13.606 39.532 39.22 0.021 111.658 0.021 223.32 0 334.962 0 25.717-13.752 39.597-39.216 39.597-203.789 0.02-407.553 0.02-611.321 0-25.063-0.023-39.091-13.924-39.091-38.862-0.041-111.935-0.041-223.89 0.02-335.824 0-4.059 0.108-8.222 1.032-12.134 4.186-17.705 17.476-26.958 38.609-26.979C308.518-114.477 410.253-114.452 511.989-114.452zM494.429 402.194c72.591 0 145.161 0 217.729 0 27.884 0.02 41.302 13.374 41.302 41.174 0.021 76.079 0.021 152.142 0 228.221 0 27.989-13.146 41.154-41.197 41.154-145.158 0.02-290.296 0.02-435.434 0-27.487 0-40.922-13.29-40.942-40.628-0.064-76.355-0.064-152.708 0-229.083 0.02-27.315 13.604-40.817 40.837-40.817C349.291 402.194 421.861 402.194 494.429 402.194zM581.782 677.518c34.13 0 67.269 0 101.189 0 0-79.969 0-159.54 0-239.617-33.668 0-67.06 0-101.189 0C581.782 517.556 581.782 597.147 581.782 677.518z"  horiz-adv-x="1024" />

    
    <glyph glyph-name="ordinaryprint" unicode="&#59068;" d="M945.28 583.072 796.8 583.072 796.8 744.864 227.328 744.864l0-161.792L78.72 583.072c-25.792 0-46.72-20.928-46.72-46.72l0-396.864 195.328 0 0-67.648 216.768-216.768 352.704 0 0 282.112 195.2 0L992 536.352C992 562.144 971.072 583.072 945.28 583.072zM282.368 689.824l459.392 0 0-106.752L282.368 583.072 282.368 689.824zM851.2 213.6l-54.4 0 0 108.8-55.04 0 0-412.288L516.096-89.888c-81.728 0-42.368 193.728-42.368 193.728S284.8 57.888 282.368 144.48L282.368 322.4l-55.04 0 0-106.56L172.8 215.84 172.8 401.248l678.4 0L851.2 213.6zM890.432 468.448c-20.608 0-37.376 16.768-37.376 37.376 0 20.608 16.768 37.376 37.376 37.376 20.672 0 37.376-16.768 37.376-37.376C927.808 485.216 911.104 468.448 890.432 468.448zM676.608 314.784 360.384 314.784l0-55.04 316.224 0L676.608 314.784zM360.384 151.904l316.224 0L676.608 206.88 360.384 206.88 360.384 151.904z"  horiz-adv-x="1024" />

    
    <glyph glyph-name="daochu" unicode="&#58998;" d="M289.43851 483.890826c-1.444905-1.338482-1.999536-3.474118-1.237175-5.417372 0.761338-1.948371 2.621705-3.134381 4.592589-3.134381l137.397002 0-0.295735-224.813783c-0.005117-3.791342 1.434672-7.585754 4.328577-10.479658 2.889811-2.894927 6.683199-4.344949 10.476588-4.344949l134.572683 0c3.788272 0 7.58166 1.450022 10.475565 4.344949 2.888788 2.893904 4.3296 6.688316 4.325507 10.479658l-0.274246 224.813783L731.201983 475.339073c1.967814 0 3.826134 1.184986 4.593612 3.134381 0.762362 1.943255 0.206707 4.07889-1.239221 5.417372l-212.489107 197.052564c-2.645241 2.447744-6.180757 3.949954-10.066243 3.949954-3.888556 0-7.427142-1.503234-10.067266-3.949954L289.43851 483.890826 289.43851 483.890826zM945.096087 186.283279 811.880305 289.208234c-7.546868 5.888092-21.553855 10.705808-31.124819 10.705808l-77.128481 0 128.387832-127.934509L704.005628 171.979534l-65.143542-92.5947L382.35555 79.384834l-62.361178 92.611072L191.974929 171.995907 319.547188 299.914042l-78.569293 0c-9.571987 0-23.578974-4.817716-31.125842-10.705808L76.636271 186.283279c-7.546868-5.889115-11.288068-18.151369-8.314346-27.25059l53.144278-162.622473c2.973722-9.099221 13.238486-16.543758 22.810473-16.543758l734.20538 0c9.571987 0 19.800935 7.455794 22.732702 16.568318l52.276516 162.572331C956.41997 168.120654 952.642955 180.394164 945.096087 186.283279z"  horiz-adv-x="1024" />

    
    <glyph glyph-name="pandianliebiao" unicode="&#58882;" d="M791.727912 747.565479 232.272088 747.565479c-92.702332 0-167.836543-75.135234-167.836543-167.836543l0-559.456848c0-92.702332 75.135234-167.836543 167.836543-167.836543l559.456848 0c92.702332 0 167.836543 75.135234 167.836543 167.836543L959.565479 579.727912C959.564455 672.430244 884.430244 747.565479 791.727912 747.565479zM847.674109 20.272088c0-30.882358-25.063839-55.946196-55.945173-55.946196L232.272088-35.674109c-30.882358 0-55.945173 25.063839-55.945173 55.946196L176.326914 579.727912c0 30.882358 25.063839 55.945173 55.945173 55.945173l559.456848 0c30.882358 0 55.945173-25.063839 55.945173-55.945173L847.674109 20.272088zM567.945173 188.10863l167.836543 0 0-111.89137-167.836543 0 0 111.89137ZM567.945173 355.946196l167.836543 0 0-111.89137-167.836543 0 0 111.89137ZM567.945173 523.782739l167.836543 0 0-111.89137-167.836543 0 0 111.89137ZM288.217261 523.782739l167.836543 0 0-447.565479-167.836543 0 0 447.565479Z"  horiz-adv-x="1024" />

    
    <glyph glyph-name="quehuobuhuo" unicode="&#58883;" d="M791.727912 747.565479 232.272088 747.565479c-92.702332 0-167.836543-75.135234-167.836543-167.836543l0-559.456848c0-92.702332 75.135234-167.836543 167.836543-167.836543l559.456848 0c92.702332 0 167.836543 75.135234 167.836543 167.836543L959.565479 579.727912C959.564455 672.430244 884.430244 747.565479 791.727912 747.565479zM847.674109 20.272088c0-30.882358-25.063839-55.946196-55.945173-55.946196L232.272088-35.674109c-30.882358 0-55.945173 25.063839-55.945173 55.946196L176.326914 579.727912c0 30.882358 25.063839 55.945173 55.945173 55.945173l559.456848 0c30.882358 0 55.945173-25.063839 55.945173-55.945173L847.674109 20.272088zM679.836543 244.054827 567.945173 244.054827 567.945173 132.163457c0-30.882358-25.063839-55.945173-55.945173-55.945173s-55.945173 25.063839-55.945173 55.945173L456.054827 244.054827 344.162434 244.054827c-30.882358 0-55.945173 25.063839-55.945173 55.945173 0 30.882358 25.063839 55.945173 55.945173 55.945173l111.89137 0L456.053804 467.837566c0 30.882358 25.063839 55.945173 55.945173 55.945173s55.945173-25.063839 55.945173-55.945173l0-111.89137 111.89137 0c30.882358 0 55.945173-25.063839 55.945173-55.945173C735.782739 269.118666 710.718901 244.054827 679.836543 244.054827z"  horiz-adv-x="1024" />

    
    <glyph glyph-name="yiweiguanli" unicode="&#58884;" d="M847.674109 132.163457l-55.945173 0L791.728936 244.054827c30.882358 0 55.945173 25.007557 55.945173 55.945173l111.89137 0 0-55.945173C959.564455 182.290111 909.49306 132.163457 847.674109 132.163457zM847.674109 523.782739l111.89137 0 0-167.836543-111.89137 0 0 167.836543ZM847.674109 579.727912c0 30.882358-25.063839 55.945173-55.945173 55.945173L791.728936 747.565479l55.945173 0c61.819974 0 111.89137-50.071396 111.89137-111.89137l0-55.945173L847.674109 579.728936 847.674109 579.727912zM567.945173 747.565479l167.836543 0 0-111.89137-167.836543 0 0 111.89137ZM456.053804 579.727912 456.053804 579.727912 344.162434 579.727912l0 55.945173c0 61.763692 50.071396 111.89137 111.89137 111.89137l55.945173 0 0-111.89137 0 0C481.117642 635.674109 456.053804 610.666552 456.053804 579.727912zM679.836543 244.054827 679.836543 355.946196c0 61.763692-50.071396 111.89137-111.89137 111.89137L456.053804 467.837566 344.162434 467.837566 176.325891 467.837566c-61.819974 0-111.89137-50.071396-111.89137-111.89137l0-391.619282c0-61.819974 50.071396-111.89137 111.89137-111.89137l391.619282 0c61.819974 0 111.89137 50.071396 111.89137 111.89137L679.836543 132.163457l55.945173 0L735.781716 244.054827 679.836543 244.054827zM567.945173 20.272088c0-30.882358-25.063839-55.946196-55.945173-55.946196L232.272088-35.674109c-30.882358 0-55.945173 25.063839-55.945173 55.946196L176.326914 300c0 30.882358 25.063839 55.945173 55.945173 55.945173l279.727912 0c30.882358 0 55.945173-25.063839 55.945173-55.945173L567.945173 20.272088zM344.162434 523.782739l111.89137 0 0-55.945173-111.89137 0 0 55.945173Z"  horiz-adv-x="1024" />

    
    <glyph glyph-name="import1" unicode="&#58999;" d="M830.541 96.893v-127.482h-638.945v127.482h-129.018v-256.499h896.98v256.499zM637.013 612.996h-253.427v-325.671h-129.498l256.015-256.015 256.016 256.016h-129.107z"  horiz-adv-x="1024" />

    
    <glyph glyph-name="04" unicode="&#59000;" d="M512 747c-174.857 0-316.625-141.753-316.625-316.625C195.375 214.238 512-147 512-147s316.625 361.238 316.625 577.375C828.625 605.247 686.856 747 512 747zM225.175 430.375C225.175 588.528 353.848 717.2 512 717.2s286.825-128.672 286.825-286.825c0-169.909-215.716-445.064-286.825-531.146C440.89-14.689 225.175 260.466 225.175 430.375zM512 579.375c-82.154 0-149-66.846-149-149 0-82.153 66.846-149 149-149 82.154 0 149 66.847 149 149C661 512.529 594.154 579.375 512 579.375zM512 311.175c-65.726 0-119.2 53.475-119.2 119.2 0 65.726 53.474 119.2 119.2 119.2 65.726 0 119.2-53.474 119.2-119.2C631.2 364.649 577.726 311.175 512 311.175z"  horiz-adv-x="1024" />

    
    <glyph glyph-name="27" unicode="&#59196;" d="M893.442 126.163c3.215 0 6.402 1.067 9.063 3.257 2.633 2.189 4.296 5.141 4.878 8.273l51.358 411.532c0.776 4.019-0.194 8.314-2.993 11.71-2.8 3.382-6.846 5.142-10.948 5.142l-11.225 0-725.31 0-40.216 90.882c-1.053 2.439-2.827 4.601-5.211 6.153-2.411 1.565-5.1 2.3-7.761 2.3L79.191 665.412c-3.631 0-7.262-1.386-10.033-4.157C66.386 658.483 65 654.853 65 651.222l0 0c0-3.631 1.386-7.262 4.158-10.033 2.771-2.771 6.402-4.157 10.033-4.157l57.428 0c2.661 0 5.349-0.734 7.733-2.301 2.412-1.552 4.158-3.714 5.238-6.153l146.869-488.224-61.17 0-6.874 0c-4.601 0-9.119-2.245-11.835-6.375-2.744-4.144-3.021-9.174-1.22-13.4l30.433-70.954c1.053-2.48 2.799-4.67 5.211-6.264 2.411-1.594 5.127-2.342 7.816-2.342l19.041 0 613.142 0c3.631 0 7.262 1.386 10.033 4.157s4.157 6.402 4.157 10.033l0 0c0 3.631-1.386 7.262-4.157 10.033s-6.402 4.157-10.033 4.157l-625.31 0-18.265 42.573 629.383 14.19L893.442 126.162zM327.502 140.354l-106.68 397.342 707.349 0-45.953-383.15L327.502 140.354zM337.425-37.031m-28.382 0a28.382 28.382 0 1 0 56.764 0 28.382 28.382 0 1 0-56.764 0ZM834.102-37.031m-28.382 0a28.382 28.382 0 1 0 56.764 0 28.382 28.382 0 1 0-56.764 0Z"  horiz-adv-x="1024" />

    
    <glyph glyph-name="kucun" unicode="&#58885;" d="M792.718473 746.282253 233.189993 746.282253c-92.703355 0-167.859056-75.156724-167.859056-167.864172l0-559.52848c0-92.703355 75.1557-167.859056 167.859056-167.859056L792.718473-148.969455c92.708472 0 167.859056 75.1557 167.859056 167.859056L960.577528 578.418081C960.576505 671.126552 885.425921 746.282253 792.718473 746.282253zM848.670809 18.889601c0-30.897707-25.050536-55.95336-55.95336-55.95336L233.189993-37.063759c-30.902824 0-55.95336 25.055652-55.95336 55.95336L177.236634 578.418081c0 30.90794 25.050536 55.95336 55.95336 55.95336L792.718473 634.37144c30.902824 0 55.95336-25.044396 55.95336-55.95336L848.671832 18.889601zM289.14233 522.465744 401.048025 522.465744l0-111.905696L289.14233 410.560048 289.14233 522.465744zM289.14233 354.612829 401.048025 354.612829l0-111.905696L289.14233 242.707133 289.14233 354.612829zM289.14233 186.748656 401.048025 186.748656l0-111.905696L289.14233 74.84296 289.14233 186.748656zM457.001385 522.465744l111.905696 0 0-111.905696L457.001385 410.560048 457.001385 522.465744zM457.001385 354.612829l111.905696 0 0-111.905696L457.001385 242.707133 457.001385 354.612829zM457.001385 186.748656l111.905696 0 0-111.905696L457.001385 74.84296 457.001385 186.748656zM624.859417 522.465744l111.905696 0 0-111.905696L624.859417 410.560048 624.859417 522.465744zM624.859417 354.612829l111.905696 0 0-111.905696L624.859417 242.707133 624.859417 354.612829zM624.859417 186.748656l111.905696 0 0-111.905696L624.859417 74.84296 624.859417 186.748656z"  horiz-adv-x="1024" />

    
    <glyph glyph-name="kuaidi" unicode="&#59001;" d="M1007.417806 291.692387c-0.148645 4.938323-1.651613 9.794065-4.409806 13.906581l-149.107613 223.744c-4.921806 7.300129-13.212903 11.726452-22.032516 11.726452l-106.908903 0-94.604387 0-0.049548 0c-14.600258 0-26.442323-11.858581-26.442323-26.491871l0-431.384774c0-14.583742 11.842065-26.458839 26.491871-26.458839l54.205935 0 0.016516 0c0-66.873806 54.222452-121.063226 121.079742-121.063226 66.890323 0 121.063226 54.189419 121.096258 121.063226l54.222452 0c14.600258 0 26.491871 11.875097 26.491871 26.491871L1007.467355 290.932645C1007.483871 291.180387 1007.434323 291.444645 1007.417806 291.692387zM724.975484 298.926452 724.975484 460.371613l102.119226 0 107.652129-161.461677L724.975484 298.909935zM805.67329-3.781161c-33.379097 0-60.548129 27.152516-60.548129 60.531613 0 33.379097 27.185548 60.548129 60.548129 60.548129s60.531613-27.185548 60.531613-60.548129C866.204903 23.371355 839.052387-3.781161 805.67329-3.781161zM528.350968 621.800258 73.992258 621.800258c-19.422968 0-35.146323-15.739871-35.146323-35.146323l0-494.740645c0-19.406452 15.723355-35.162839 35.129806-35.162839l85.933419 0c0-66.873806 54.205935-121.063226 121.079742-121.063226s121.079742 54.189419 121.079742 121.063226l126.282323 0c19.422968 0 35.146323 15.756387 35.146323 35.162839L563.49729 586.653935C563.49729 606.060387 547.790452 621.800258 528.350968 621.800258zM280.988903-3.781161c-33.379097 0-60.531613 27.152516-60.531613 60.531613 0 33.379097 27.169032 60.548129 60.531613 60.548129s60.548129-27.185548 60.548129-60.548129C341.537032 23.371355 314.368-3.781161 280.988903-3.781161z"  horiz-adv-x="1024" />

    
    <glyph glyph-name="88" unicode="&#59476;" d="M512 745C266.265 745 67 545.738 67 299.993S266.236-144.985 512-145c245.735 0.015 445 199.262 445 445.008C957 545.753 757.765 745 512 745zM512-115.319c-229.019 0-415.333 186.298-415.333 415.313C96.667 529.022 282.981 715.334 512 715.305c229.019 0.015 415.334-186.282 415.334-415.312C927.334 70.979 741.019-115.319 512-115.319zM468.92 431.926c0-14.34 11.646-25.957 25.987-25.957s25.929 11.617 25.929 25.957c0 14.341-11.588 25.958-25.929 25.958S468.92 446.267 468.92 431.926zM337.013 431.926c0-14.34 11.618-25.957 25.929-25.957 14.341 0 25.987 11.617 25.987 25.957 0 14.341-11.646 25.958-25.987 25.958C348.631 457.884 337.013 446.267 337.013 431.926zM593.584 446.832c7.938 0.941 16.021 1.521 24.22 1.666-30.594 64.706-103.341 110.364-188.082 110.364-112.235 0-203.553-80.047-203.553-178.446 0-56.537 30.391-109.351 81.728-143.015l-40.473-95.937 99.864 69.24c13.559-3.839 27.32-6.302 41.14-7.619-2.028 7.503-3.65 15.122-4.693 22.915-11.82 1.521-23.554 3.94-35.113 7.519l-5.157 1.594-45.746-31.709 18.165 43.051-8.373 4.939c-49.512 29.231-79.092 77.468-79.092 129.021 0 86.131 81.352 156.196 181.303 156.196C502.092 536.612 564.525 499.79 593.584 446.832zM797.832 249.989c0 85.029-78.831 154.212-175.683 154.212-96.88 0-175.683-69.183-175.683-154.212s78.803-154.212 175.683-154.212c17.847 0 35.692 2.463 53.075 7.33l89.319-61.969-36.243 85.971C772.019 156.196 797.832 201.492 797.832 249.989zM708.745 141.088l-8.402-4.954 13.936-33.026-35.2 24.407-5.157-1.593c-16.919-5.244-34.331-7.895-51.771-7.895-84.597 0-153.433 59.201-153.433 131.962 0 72.76 68.836 131.962 153.433 131.962s153.433-59.202 153.433-131.962C775.582 206.475 750.579 165.757 708.745 141.088zM566.408 316.304c-12.283 0-22.25-9.98-22.25-22.265 0-12.283 9.967-22.234 22.25-22.234 12.284 0 22.221 9.951 22.221 22.234C588.629 306.323 578.692 316.304 566.408 316.304zM679.252 316.304c-12.284 0-22.25-9.98-22.25-22.265 0-12.283 9.966-22.234 22.25-22.234s22.221 9.951 22.221 22.234C701.473 306.323 691.536 316.304 679.252 316.304z"  horiz-adv-x="1024" />

    
    <glyph glyph-name="dayin" unicode="&#59002;" d="M760.901837 413.880677l55.821353 0 0-55.81112-55.821353 0 0 55.81112ZM565.552683 413.880677l139.538033 0 0-55.81112-139.538033 0 0 55.81112ZM370.193297 23.172137l279.076066 0 0-55.81112-279.076066 0 0 55.81112ZM370.193297 162.710171l279.076066 0 0-55.81112-279.076066 0 0 55.81112ZM202.749704 106.89905l55.81112 0 0 111.632473-55.81112 0 0 55.81112 613.973486 0 0-55.81112-55.821353 0 0-111.632473 55.821353 0c61.019749 0 83.71668 22.696931 83.71668 83.71668l0 223.264946c0 46.171576-37.555337 83.726913-83.71668 83.726913l-613.973486 0c-46.171576 0-83.696214-37.555337-83.696214-83.726913l0-223.264946C119.05349 145.518626 182.856631 106.89905 202.749704 106.89905zM956.261223 413.880677l0-223.264946c0-115.336842-75.878155-139.538033-139.538033-139.538033l-55.821353 0 0-195.349153-502.341013 0 0 195.349153-55.81112 0c-46.5195 0-139.5278 60.313667-139.5278 139.538033l0 223.264946c0 76.942393 62.585407 139.538033 139.5278 139.538033l83.726913 0L286.476617 748.778096l446.51966 0 0-195.359386 83.726913 0C893.65535 553.41871 956.261223 490.82307 956.261223 413.880677zM705.090716-88.460336l0 306.99186-390.70854 0 0-306.99186L705.090716-88.460336zM677.185156 553.41871 677.185156 692.956743l-334.89742 0 0-139.538033L677.185156 553.41871z"  horiz-adv-x="1024" />

    
    <glyph glyph-name="xiaoxituisongshezhi" unicode="&#59003;" d="M764.019314 759.748261 259.980686 759.748261c-112.841967 0-204.313937-91.47197-204.313937-204.313937l0-510.784843c0-112.841967 91.47197-204.313937 204.313937-204.313937l504.038628 0c112.800065 0 204.313937 91.47197 204.313937 204.313937L968.333251 555.434324C968.333251 668.276291 876.861282 759.748261 764.019314 759.748261zM526.100008 115.170472c-32.599722 0-69.431541 6.788117-105.970047 19.023488l-166.937393-92.98044 30.504624 169.702922c-40.393486 35.78427-67.462149 79.278501-67.462149 126.082986 0 122.521319 185.416155 221.828955 309.864964 221.828955 124.448809 0 281.664948-99.307636 281.664948-221.828955S650.548817 115.170472 526.100008 115.170472z"  horiz-adv-x="1024" />

    
    <glyph glyph-name="cogs3" unicode="&#58941;" d="M875.765479 95.150904c0 3.808438-1.332603 7.616877-3.997808 11.425315-21.335671 25.536877-38.477151 47.440658-51.431452 65.718356 7.995616 15.612493 14.090521 30.088767 18.277699 43.414795l88.576 13.711781c3.436712 0.385753 6.480658 2.384658 9.145863 5.996712 2.665205 3.633096 3.990795 7.336329 3.990795 11.144767L940.326575 352.287123c0 4.187178-1.325589 7.904438-3.990795 11.137753s-5.905534 5.239233-9.713973 5.989699l-86.857644 13.143671c-4.201205 12.954301-10.674849 28.580822-19.434959 46.858521 5.709151 8.388384 14.286904 19.820712 25.719233 34.289973 11.425315 14.476274 19.434959 24.758356 24.000877 30.85326 2.665205 3.808438 3.997808 7.434521 3.997808 10.857205 0 10.289096-27.430575 40.763616-82.277699 91.430575-3.808438 3.043945-7.806247 4.565918-12.007452 4.565918-4.565918 0-8.374356-1.318575-11.432329-3.997808l-67.429699-50.856329c-15.612493 7.995616-29.899397 13.901151-42.853699 17.716603l-13.143671 87.425753c-0.371726 3.808438-2.279452 7.146959-5.709151 10.001534-3.429699 2.854575-7.238137 4.28537-11.432329 4.28537L521.482521 665.988822c-8.76011 0-14.476274-4.572932-17.141479-13.711781-4.572932-17.527233-8.949479-46.865534-13.143671-88.000877-16.376986-5.330411-31.04263-11.425315-43.996932-18.284712l-65.711342 51.424438c-3.808438 2.672219-7.806247 3.997808-12.000438 3.997808-7.245151 0-22.289534-11.235945-45.147178-33.714849-22.857644-22.47189-38.484164-39.424-46.858521-50.856329-2.672219-3.050959-3.997808-6.859397-3.997808-11.432329 0-3.422685 1.325589-7.231123 3.997808-11.425315 21.328658-25.529863 38.470137-47.433644 51.424438-65.711342-7.995616-15.626521-14.090521-30.095781-18.277699-43.428822L222.053699 371.139945c-3.429699-0.37874-6.473644-2.377644-9.145863-5.989699-2.665205-3.626082-3.997808-7.336329-3.997808-11.144767l0-105.710466c0-4.194192 1.332603-7.911452 3.997808-11.144767 2.672219-3.240329 5.905534-5.049863 9.720986-5.428603l86.857644-13.711781c4.572932-14.476274 11.242959-30.095781 20.003068-46.858521-6.094904-8.388384-15.044384-20.010082-26.855452-34.858082-11.818082-14.862027-19.624329-24.961753-23.432767-30.285151-2.665205-3.808438-3.997808-7.441534-3.997808-10.857205 0-10.29611 27.430575-40.763616 82.284712-91.430575 3.808438-3.043945 7.806247-4.558904 12.000438-4.558904 4.951671 0 8.76011 1.318575 11.425315 3.990795l67.429699 50.856329c15.612493-8.00263 29.899397-13.901151 42.853699-17.709589l13.143671-87.432767c0.37874-3.808438 2.286466-7.146959 5.709151-10.001534 3.429699-2.854575 7.238137-4.278356 11.432329-4.278356l106.278575 0c8.767123 0 14.476274 4.565918 17.141479 13.711781 4.572932 17.912986 8.949479 47.433644 13.143671 88.576 15.233753 4.558904 29.899397 10.478466 43.996932 17.702575l65.718356-51.424438c3.808438-2.672219 7.806247-3.990795 12.000438-3.990795 7.238137 0 22.198356 11.327123 44.859616 34.002411 22.66126 22.654247 38.378959 39.711562 47.146082 51.14389C874.432877 86.958904 875.765479 90.577973 875.765479 95.150904zM678.049315 196.856548c-28.566795-28.566795-63.046137-42.853699-103.424-42.853699-40.384877 0-74.864219 14.286904-103.431014 42.853699-28.566795 28.566795-42.853699 63.046137-42.853699 103.431014 0 40.377863 14.286904 74.857205 42.853699 103.424 28.566795 28.573808 63.046137 42.853699 103.431014 42.853699 40.377863 0 74.857205-14.27989 103.424-42.853699 28.573808-28.566795 42.853699-63.046137 42.853699-103.424C720.903014 259.902685 706.623123 225.423342 678.049315 196.856548zM1220.902575 65.426849c-4.944658 11.046575-10.660822 20.949918-17.134466 29.717041 19.427945 43.050082 29.134904 69.337425 29.134904 78.855014 0 1.514959-0.750466 2.854575-2.279452 3.997808-45.722301 26.666082-69.337425 39.999123-70.859397 39.999123l-3.429699-1.150247c-15.612493-15.619507-33.14674-36.955178-52.567671-64-7.616877 0.757479-13.326027 1.150247-17.134466 1.150247-3.822466 0-9.524603-0.392767-17.148493-1.150247-5.316384 8.009644-15.233753 20.865753-29.703014 38.575342s-23.236384 26.574904-26.287342 26.574904c-0.757479 0-6.473644-3.050959-17.141479-9.152877-10.667836-6.094904-21.903781-12.568548-33.714849-19.434959-11.825096-6.866411-18.474082-10.667836-20.003068-11.432329-1.536-1.136219-2.286466-2.475836-2.286466-3.990795 0-9.524603 9.713973-35.797918 29.134904-78.855014-6.46663-8.767123-12.182795-18.670466-17.134466-29.710027-56.768877-5.709151-85.153315-11.614685-85.153315-17.709589l0-79.998247c0-6.094904 28.384438-12.000438 85.153315-17.709589 4.558904-10.282082 10.282082-20.192438 17.134466-29.703014-19.420932-43.050082-29.134904-69.337425-29.134904-78.862027 0-1.514959 0.750466-2.854575 2.286466-3.997808 46.465753-27.044822 70.094904-40.567233 70.859397-40.567233 3.050959 0 11.818082 8.949479 26.287342 26.855452 14.46926 17.912986 24.379616 30.85326 29.703014 38.85589 7.616877-0.750466 13.326027-1.136219 17.148493-1.136219 3.808438 0 9.517589 0.385753 17.134466 1.136219 5.323397-8.00263 15.233753-20.942904 29.710027-38.85589 14.46926-17.905973 23.22937-26.855452 26.287342-26.855452 0.757479 0 24.38663 13.529425 70.859397 40.567233 1.528986 1.143233 2.279452 2.475836 2.279452 3.997808 0 9.524603-9.713973 35.811945-29.134904 78.862027 6.852384 9.510575 12.568548 19.420932 17.134466 29.703014 56.768877 5.709151 85.153315 11.614685 85.153315 17.709589l0 79.998247C1306.05589 53.805151 1277.671452 59.710685 1220.902575 65.426849zM1138.330301-44.000877c-14.272877-14.286904-31.519562-21.440877-51.712-21.440877s-37.43211 7.153973-51.712 21.440877c-14.286904 14.286904-21.433863 31.519562-21.433863 51.712 0 19.806685 7.245151 36.962192 21.721425 51.431452s31.617753 21.714411 51.424438 21.714411 36.962192-7.238137 51.438466-21.714411c14.46926-14.46926 21.714411-31.624767 21.714411-51.431452C1159.764164-12.481315 1152.624219-29.713973 1138.330301-44.000877zM1220.902575 650.572712c-4.944658 11.046575-10.660822 20.949918-17.134466 29.717041 19.427945 43.043068 29.134904 69.330411 29.134904 78.855014 0 1.514959-0.750466 2.854575-2.279452 3.997808-45.722301 26.666082-69.337425 39.999123-70.859397 39.999123l-3.429699-1.143233c-15.612493-15.626521-33.14674-36.955178-52.567671-64-7.616877 0.757479-13.326027 1.143233-17.134466 1.143233-3.822466 0-9.524603-0.385753-17.148493-1.143233-5.316384 8.00263-15.233753 20.85874-29.703014 38.568329-14.46926 17.716603-23.236384 26.574904-26.287342 26.574904-0.757479 0-6.473644-3.043945-17.141479-9.145863-10.667836-6.101918-21.903781-12.575562-33.714849-19.434959-11.825096-6.859397-18.474082-10.667836-20.003068-11.425315-1.536-1.143233-2.286466-2.475836-2.286466-3.997808 0-9.524603 9.713973-35.811945 29.134904-78.855014-6.46663-8.767123-12.182795-18.670466-17.134466-29.717041-56.768877-5.709151-85.153315-11.614685-85.153315-17.709589l0-79.998247c0-6.094904 28.384438-12.000438 85.153315-17.709589 4.558904-10.282082 10.282082-20.192438 17.134466-29.717041-19.420932-43.050082-29.134904-69.330411-29.134904-78.855014 0-1.514959 0.750466-2.854575 2.286466-3.997808 46.465753-27.044822 70.094904-40.567233 70.859397-40.567233 3.050959 0 11.818082 8.949479 26.287342 26.855452 14.46926 17.905973 24.379616 30.85326 29.703014 38.85589 7.616877-0.757479 13.326027-1.143233 17.148493-1.143233 3.808438 0 9.517589 0.385753 17.134466 1.143233 5.323397-8.00263 15.233753-20.949918 29.710027-38.85589 14.46926-17.905973 23.22937-26.855452 26.287342-26.855452 0.757479 0 24.38663 13.522411 70.859397 40.567233 1.528986 1.143233 2.279452 2.475836 2.279452 3.997808 0 9.524603-9.713973 35.804932-29.134904 78.855014 6.852384 9.524603 12.568548 19.427945 17.134466 29.717041 56.768877 5.709151 85.153315 11.614685 85.153315 17.709589L1306.05589 632.85611C1306.05589 638.951014 1277.671452 644.856548 1220.902575 650.572712zM1138.330301 541.144986c-14.272877-14.286904-31.519562-21.433863-51.712-21.433863s-37.43211 7.146959-51.712 21.433863c-14.286904 14.27989-21.433863 31.519562-21.433863 51.712 0 19.806685 7.245151 36.955178 21.721425 51.431452s31.617753 21.714411 51.424438 21.714411 36.962192-7.245151 51.438466-21.714411c14.46926-14.476274 21.714411-31.624767 21.714411-51.431452C1159.764164 572.664548 1152.624219 555.424877 1138.330301 541.144986z"  horiz-adv-x="1515" />

    
    <glyph glyph-name="suo" unicode="&#58886;" d="M836.06163 410.86397l-31.722492 0 0 27.629267c0 0.342808-0.01228 0.683569-0.025583 1.023306 0.013303 0.339738 0.025583 0.680499 0.025583 1.023306 0 79.540567-30.975479 154.320715-87.217411 210.56367-56.243979 56.243979-131.023102 87.218434-210.564693 87.218434-79.540567 0-154.319691-30.974455-210.56367-87.218434-56.243979-56.243979-87.218434-131.023102-87.218434-210.56367 0-0.342808 0.01228-0.683569 0.025583-1.023306-0.013303-0.339738-0.025583-0.680499-0.025583-1.023306l0-27.629267-27.629267 0c-36.676317 0-66.514903-29.838585-66.514903-66.514903l0-409.322479c0-36.676317 29.838585-66.514903 66.514903-66.514903l654.915967 0c36.676317 0 66.514903 29.838585 66.514903 66.514903l0 409.322479C902.576533 381.025385 872.737948 410.86397 836.06163 410.86397zM259.915681 439.516544c0.013303 0.339738 0.025583 0.680499 0.025583 1.023306 0 65.874313 25.65224 127.804804 72.232115 174.384679 46.579875 46.579875 108.510366 72.232115 174.383656 72.232115 65.874313 0 127.804804-25.65224 174.384679-72.232115 46.579875-46.579875 72.232115-108.510366 72.232115-174.384679 0-0.342808 0.01228-0.683569 0.025583-1.023306-0.013303-0.339738-0.025583-0.680499-0.025583-1.023306l0-27.629267-493.233588 0 0 27.629267C259.941264 438.837068 259.928984 439.176806 259.915681 439.516544zM851.411223-64.973412c0-8.463766-6.885827-15.349593-15.349593-15.349593l-654.915967 0c-8.463766 0-15.349593 6.885827-15.349593 15.349593l0 409.322479c0 8.463766 6.885827 15.349593 15.349593 15.349593l654.915967 0c8.463766 0 15.349593-6.885827 15.349593-15.349593L851.411223-64.973412zM508.603647 288.067226c-59.246359 0-107.447151-48.200792-107.447151-107.447151 0-33.027208 15.373129-64.138786 40.932248-84.350107l0-38.446637c0-36.676317 29.838585-66.514903 66.514903-66.514903l4.093225 0c36.676317 0 66.514903 29.838585 66.514903 66.514903l0 41.814338c23.287379 20.274766 36.839023 49.629327 36.839023 80.982406C616.050798 239.866435 567.851029 288.067226 508.603647 288.067226zM539.538193 133.610412l-11.490705-7.583722 0-68.203358c0-8.463766-6.885827-15.349593-15.349593-15.349593l-4.093225 0c-8.463766 0-15.349593 6.885827-15.349593 15.349593l0 66.664306-12.768815 7.389294c-17.371646 10.05296-28.163433 28.730345-28.163433 48.743144 0 31.033807 25.248034 56.281841 56.281841 56.281841 31.033807 0 56.281841-25.248034 56.281841-56.281841C564.885488 161.659235 555.410696 144.085998 539.538193 133.610412z"  horiz-adv-x="1024" />

    
    <glyph glyph-name="chazishanchudaibiankuang" unicode="&#59237;" d="M874.057143 746.029714c-100.000914 99.962514-231.032686 149.961143-362.066286 149.961143-130.998857 0-262.030629-49.998629-361.993143-149.961143-199.996343-199.9616-199.996343-524.097829 0-724.0576 99.962514-99.964343 230.996114-149.962971 361.993143-149.962971 131.0336 0 262.065371 49.998629 362.066286 149.962971C1073.982171 221.931886 1073.982171 546.068114 874.057143 746.029714zM848.199314 47.828114c-89.821257-89.786514-209.210514-139.249371-336.208457-139.249371-126.9632 0-246.352457 49.428114-336.137143 139.249371C86.034286 137.645714 36.571429 257.003886 36.571429 384c0 126.997943 49.462857 246.352457 139.282286 336.173714 89.784686 89.819429 209.175771 139.247543 336.137143 139.247543 126.997943 0 246.3872-49.462857 336.208457-139.247543C1033.517714 534.818743 1033.517714 233.181257 848.199314 47.828114zM796.450743 616.782629 744.735086 668.494629 512.027429 435.748571 279.279543 668.494629 227.567543 616.711314 460.242286 384 227.567543 151.288686 279.279543 99.505371 511.990857 332.2496 744.700343 99.505371 796.485486 151.288686 563.739429 384.036571Z"  horiz-adv-x="1025" />

    
    <glyph glyph-name="zan1" unicode="&#59330;" d="M510.340709-4.892171c-23.173792 0-247.254314 180.180685-332.157006 289.301965-58.338686 53.264111-105.562221 152.650679-105.562221 222.732827 0 148.765185 108.952434 269.77626 242.874563 269.77626 81.781608 0 151.191444-67.679425 194.013739-137.605008 42.822294 69.925582 112.207571 137.605008 194.013739 137.605008 133.922129 0 242.874563-121.011074 242.874563-269.77626 0-70.239737-47.445592-169.805384-106.055454-223.182059C754.630505 173.446563 534.862195-4.892171 510.340709-4.892171zM315.497069 730.9315c-108.570741 0-196.887182-100.397594-196.887182-223.788879 0-58.382689 42.059931-145.353482 91.864244-189.903118 1.033539-0.943488 2.022053-1.977028 2.874467-3.098571 83.937714-109.042485 251.138784-234.421031 297.17119-267.923052 48.054459 34.715663 213.05542 161.193239 294.611901 267.451308 0.899486 1.12359 1.888 2.178619 2.964518 3.142573 50.03251 44.663222 92.312452 131.813095 92.312452 190.33086 0 123.391285-88.316441 223.788879-196.885136 223.788879-70.487378 0-137.808646-75.135234-173.241646-149.597133-7.634888-16.033162-33.908274-16.033162-41.543162 0C453.303668 655.796266 385.983423 730.9315 315.497069 730.9315z"  horiz-adv-x="1024" />

    
    <glyph glyph-name="msnui-shezhi" unicode="&#58942;" d="M424.647 828.215c-60.406 0-119.564-11.418-177.165-43.733 3.507-6.133-0.033-12.050-0.742-18.531-2.435-22.205 20.563-39.833 43.735-63.006 44.469-44.468 96.237-94.513 131.948-134.906-31.875-30.884-63.751-65.722-95.625-94.137-41.313 40.116-89.564 91.044-131.947 133.424-15.369 15.368-29.763 34.744-44.477 41.51-13.385 6.155-25.606-1.668-38.546 0-38.601-72.266-50.525-141.415-42.253-214.22 7.38-64.963 33.537-132.062 88.952-194.206 56.723-63.61 127.102-95.764 192.73-108.22 66.218-12.57 127.927-8.017 194.955 15.565 37.54-37.875 73.045-71.56 110.45-108.961 35.233-35.231 67.652-76.206 108.967-91.173 57.887-20.973 146.223-1.42 180.129 77.832 9.288 21.711 12.87 48.431 10.378 72.64-1.902 18.483-9.052 46.384-24.982 65.948-0.012 0.016-0.020 0.035-0.036 0.053-8.144 11.894-55.362 57.552-55.362 57.552l0.002-0.005c-17.68 17.555-36.865 35.204-56.016 54.352-14.813 14.813-32.658 32.655-50.406 50.403-17.336 17.335-34.404 40.424-51.15 48.182-29.969 13.882-62.735-21.809-49.664-49.663 8.013-17.076 30.819-33.783 48.183-51.146 34.309-34.306 70.333-68.845 103.78-102.291 1.689-1.688 3.354-3.387 5.002-5.086h-0.003c0 0 0.017-0.015 0.047-0.047 5.87-6.057 11.504-12.12 17.126-17.764 15.037-15.892 34.967-37.789 38.141-45.44 0.064-0.168 0.13-0.337 0.191-0.504 0.011-0.038 0.032-0.083 0.043-0.118 0.001-0.002 0.001-0.003 0.001-0.007 0.085-0.235 0.163-0.475 0.237-0.71 18.037-58.15-50.479-111.47-102.294-80.055-11.067 6.711-18.127 18.125-28.911 28.908-59.209 59.205-132.608 129.542-189.025 187.536-97.171-52.8-206.947-58.313-304.662 11.12-58.056 41.249-88.705 97.166-104.519 147.505-16.207 51.58-16.909 103.853-2.966 151.215 40.297-40.296 81.929-81.926 123.052-123.046 14.26-14.26 25.899-31.537 40.028-38.543 26.887-13.335 47.558 13.457 75.61 41.507 14.697 14.697 28.403 28.402 42.994 42.992 21.257 21.256 73.126 63.862 80.798 86.726 7.851 23.394-13.835 42.004-36.323 64.489-43.935 43.932-84.201 84.528-124.534 126.010 79.183 18.142 167.972 10.028 247.585-56.333 75.698-63.093 101.934-149.326 100.072-215.703-0.275-9.783-3.509-20.11 0.001-29.652 13.064-28.060 49.419-35.421 68.197-7.412 6.608 9.852 5.187 30.556 5.187 43.734 0.002 73.825-24.672 150.725-83.020 220.892-79.149 95.169-180.848 124.522-263.894 124.522z"  horiz-adv-x="1024" />

    
    <glyph glyph-name="msnui-rmb" unicode="&#59128;" d="M413.247 129.032h-199.226q-27.871 2.065-42.839 23.226t-18.065 46.968q3.097 25.806 18.065 42.323t42.839 18.581h199.226v65.032l-199.226 1.032q-27.871 2.065-42.839 19.613t-18.065 44.387q3.097 25.806 18.065 42.323t42.839 18.581h148.645l-138.323 243.613q-10.323 12.387-19.613 31.484t-8.258 41.806q5.161 28.903 20.645 46.968t57.806 23.226q24.774-2.065 44.387-17.032t32-32.516l156.903-286.968 172.387 289.032q12.387 17.548 32 30.968t44.387 16.516q15.484-1.032 28.387-4.129t22.71-10.323 16.516-20.645 9.806-35.097q0-29.935-20.645-56.774l-160-260.129h151.742q26.839-2.065 42.323-18.581t17.548-42.323q-2.065-26.839-18.065-45.419t-42.839-20.645l-197.161-1.032v-62.968h198.194q26.839-2.065 42.323-20.645t17.548-44.387q-2.065-26.839-17.548-44.903t-42.323-20.129l-198.194 1.032v-109.419q-4.129-87.742-96-87.742-45.419 0-70.71 21.677t-27.355 66.065v107.355z"  horiz-adv-x="1024" />

    
    <glyph glyph-name="saomiao" unicode="&#59100;" d="M654.787541-141.640536c-44.460608-14.210653-91.836615-21.88545-141.010571-21.88545-255.56049 0-462.737016 207.16527-462.737016 462.72576 0 255.555373 207.175503 462.721667 462.737016 462.721667 255.556397 0 462.726783-207.166293 462.726783-462.721667 0-35.81674-4.071735-70.682829-11.771091-104.162338l48.594765 0c6.977925 33.627888 10.651594 68.466348 10.651594 104.162338 0 281.767362-228.430596 510.181585-510.201028 510.181585C232.001422 809.381359 3.581059 580.96509 3.581059 299.199775c0-281.756105 228.41934-510.176468 510.195911-510.176468 48.917106 0 96.223528 6.888897 141.010571 19.742646L654.787541-141.640536 654.787541-141.640536zM319.41633 141.289302c0-20.120246 16.301268-36.43891 36.443004-36.43891 20.144806 0 36.439934 16.32378 36.439934 36.43891 0 20.119223-16.295128 36.444027-36.439934 36.444027C335.717598 177.733329 319.41633 161.408525 319.41633 141.289302zM222.233964 177.729236l0-72.881914c0-40.259936 32.639375-72.883961 72.888054-72.883961l359.664499 0 0 48.591695L295.122018 80.555056c-13.405311 0-24.294312 10.864442-24.294312 24.295336l0 72.882937c0 13.423731 10.890025 24.293289 24.294312 24.293289l461.609333 0c6.637164 0 12.650111-2.669806 17.038048-6.990205l53.765531 0c-7.770987 31.899524-36.508495 55.574736-70.803579 55.574736l-58.431807 0 58.602699 287.167349c2.557242 13.407358-7.119141 26.190499-21.593807 28.55229-14.496156 2.37407-28.304649-6.582929-30.844495-19.98824l-60.349483-295.731398L383.443576 250.61115l-60.349483 295.731398c-2.538823 13.406335-16.34834 22.36231-30.843472 19.98824-14.470573-2.361791-24.142863-15.145955-21.579481-28.55229l58.59349-287.167349L295.122018 250.61115C254.873339 250.61115 222.233964 217.991218 222.233964 177.729236zM706.866663 59.635607c11.354606 0 20.558222 8.919137 20.558222 19.920702l0 38.97671 220.775242 0 0-38.97671c0-11.001565 9.201569-19.920702 20.558222-19.920702 11.352559 0 20.556175 8.919137 20.556175 19.920702l0 59.761082c0 11.002588-9.203616 19.919678-20.556175 19.919678-0.082888 0-0.147356-0.042979-0.225127-0.042979s-0.145309 0.042979-0.226151 0.042979L707.310778 159.237069c-0.075725 0-0.14224-0.042979-0.220011-0.042979-0.081864 0-0.144286 0.042979-0.226151 0.042979-11.352559 0-20.556175-8.91709-20.556175-19.919678l0-59.761082C686.310488 68.554744 695.514104 59.635607 706.866663 59.635607L706.866663 59.635607zM968.757325-53.949334c-11.355629 0-20.556175-8.916067-20.556175-19.917632l0-38.977733L727.423861-112.844699l0 38.977733c0 11.001565-9.201569 19.917632-20.556175 19.917632-11.352559 0-20.558222-8.916067-20.558222-19.917632l0-59.761082c0-11.003612 9.205663-19.922748 20.558222-19.922748 0.081864 0 0.143263 0.042979 0.226151 0.042979 0.077771 0 0.141216-0.042979 0.220011-0.042979l260.997316 0c0.080841 0 0.145309 0.042979 0.223081 0.042979 0.080841 0 0.146333-0.042979 0.226151-0.042979 11.352559 0 20.558222 8.919137 20.558222 19.922748l0 59.761082C989.315547-62.865401 980.109884-53.949334 968.757325-53.949334L968.757325-53.949334zM989.315547 22.268558 687.652043 22.268558c-11.603269 0-21.007453-9.110495-21.007453-20.351514 0-11.241019 9.403161-20.352537 21.007453-20.352537l301.664527 0c11.601222 0 21.004383 9.110495 21.004383 20.352537C1010.320953 13.15704 1000.917792 22.268558 989.315547 22.268558L989.315547 22.268558z"  horiz-adv-x="1024" />

    
    <glyph glyph-name="icon1" unicode="&#59198;" d="M480.359884 71.898909c-35.456536 0-64.161299-28.702716-64.161299-64.090691 0-35.45756 28.704762-64.092737 64.161299-64.092737 35.387975 0 64.091714 28.634154 64.091714 64.092737C544.451598 43.196193 515.747859 71.898909 480.359884 71.898909zM848.975243 385.815481c-91.635023 0-166.174694 74.503854-166.174694 166.104085 0 4.466732 0.985444 8.653077 1.301645 13.014408l-304.734446 26.593681c-17.869996 1.548262-27.789926-11.044544-22.091134-28.070312l96.559173-289.01237c5.733585-16.954137 25.116027-33.135678 42.986023-33.135678l403.333068 0c17.904789 0 34.156938 16.884552 36.056194 34.684964l15.653515 146.545634C923.478074 399.921757 888.020514 385.815481 848.975243 385.815481zM786.712177 71.898909c-35.386952 0-64.091714-28.702716-64.091714-64.090691 0-35.45756 28.704762-64.092737 64.091714-64.092737 35.387975 0 64.126506 28.634154 64.126506 64.092737C850.838683 43.196193 822.100152 71.898909 786.712177 71.898909zM861.989651 189.810389l-446.284299 0L262.053879 644.152201c-4.431939 13.296841-16.883529 19.980054-30.885428 19.980054L95.387999 664.132254c-17.939581 0-32.538067-12.663414-32.538067-30.673603 0-18.011212 14.598486-30.674627 32.538067-30.674627l112.388696 0 153.615657-454.341812c4.503571-13.225209 16.884552-19.908422 30.885428-19.908422l469.712895 0c18.011212 0 32.573883 12.663414 32.573883 30.602995C894.563534 177.146974 880.000863 189.810389 861.989651 189.810389zM848.975243 664.132254c-61.944817 0-112.143103-50.232055-112.143103-112.212688 0-61.841463 50.198286-112.073518 112.143103-112.073518 61.910025 0 112.073518 50.232055 112.073518 112.073518C961.047738 613.9002 910.885268 664.132254 848.975243 664.132254zM916.232043 533.908354l-49.247634 0 0-49.246611-36.020378 0 0 49.246611-49.316196 0 0 36.020378 49.316196 0L830.96403 619.246975l36.020378 0 0-49.317219 49.247634 0L916.232043 533.908354z"  horiz-adv-x="1024" />

    
    <glyph glyph-name="icon27" unicode="&#59018;" d="M195.301058 615.687916c-174.726463-174.726463-174.726463-458.047204 0-632.772644 174.777629-174.777629 458.047204-174.726463 632.772644 0 174.72851 174.72851 174.777629 457.995015 0 632.772644C653.348262 790.414379 370.029568 790.416426 195.301058 615.687916zM729.415728 408.166535l-108.86443-108.86443 108.86443-108.86443-108.86443-108.86443-108.86443 108.86443-108.86443-108.86443-108.86443 108.86443 108.86443 108.86443-108.86443 108.86443 108.86443 108.86443 108.86443-108.86443 108.86443 108.86443L729.415728 408.166535z"  horiz-adv-x="1024" />

    
    <glyph glyph-name="dianhua" unicode="&#59438;" d="M164.573731 232.272343c-38.604226-44.807509-39.397289-108.264772-1.777483-141.713582l111.618147-99.276051 5.254677-4.114714c7.846712-5.411243 17.138332-8.764618 27.702945-10.241248 27.568892-3.845585 63.724347 5.321192 104.977913 25.445532 80.985476 39.620369 181.603081 121.54524 275.401374 230.392274 93.798293 108.812241 160.428829 220.990137 188.333366 307.789015 19.677155 61.108776 20.12434 109.673865-2.704598 135.610584l-4.719488 4.739954L757.06495 780.159692c-12.117992 10.777461-26.718525 17.127076-42.258453 19.296485-32.734542 4.560876-69.606311-9.43693-95.767134-39.822984l-70.498634-81.813331c-38.615483-44.787042-39.397289-108.24226-1.76725-141.692093l106.566084-94.782713c-24.194028-34.791387-51.583842-70.185502-81.790818-105.246019-30.231535-35.059494-61.131289-67.335594-91.898013-96.267531L373.096928 334.600917c-12.107759 10.755971-26.708292 17.105586-42.247196 19.273972-32.734542 4.583388-69.595055-9.435906-95.777367-39.799448L164.573731 232.272343 164.573731 232.272343zM708.0537 749.571023c6.417153-0.89437 11.917424-3.353374 16.34527-7.28901l11.984962-10.642384L590.040912 564.568519l-10.620895 9.435906c-9.592472 8.54256-10.890025 21.264303-10.799974 28.083615 0.200568 14.579043 6.461155 30.095435 17.194614 42.572608l70.52217 81.813331C670.490176 742.907253 690.792571 751.963513 708.0537 749.571023L708.0537 749.571023zM235.619834 94.851531l146.041144 166.892031 78.425164-70.478168 20.525476-19.183921 32.757055 30.810726c32.644491 30.766724 64.753793 64.440661 95.475492 100.048647 30.677697 35.618219 59.275012 72.421426 84.966137 109.360733l25.75764 37.071314-33.582863 29.871331-64.328098 56.615439 148.758022 168.992879 64.439638-60.794621 2.012843-2.035356c4.158716-5.969968 9.770528-30.92329-7.892761-85.837994-12.768815-39.71042-35.08303-86.329181-64.531735-134.849244-31.592532-52.008514-69.939909-104.307647-113.964588-155.432025-44.048215-51.114145-90.020246-96.637967-136.593981-135.318942-43.445488-36.08894-85.97307-64.707744-123.021871-82.820264-45.512566-22.225187-68.822458-22.091134-76.726475-20.972661-3.152806 0.447185-4.985548 1.11745-5.992481 1.653663l-2.246157 1.789763L235.619834 94.851531zM184.663278 156.519032c0.179079 14.57802 6.449899 30.096459 17.204847 42.573631l70.488401 81.83482c14.165628 16.424064 34.478256 25.479301 51.740408 23.064298 6.417153-0.89437 11.917424-3.330862 16.344247-7.28901l8.429996-7.489578L203.814454 121.593592l-8.363482 6.842849C185.859523 136.976954 184.574251 149.67823 184.663278 156.519032L184.663278 156.519032z"  horiz-adv-x="1024" />

    
    <glyph glyph-name="saomiao1" unicode="&#58980;" d="M275.966 430.013l13.382-62.523-218.674-46.803-13.382 62.523 218.674 46.803zM70.777 703.218l218.643-47.501-13.574-62.478-218.643 47.501 13.574 62.478zM960 608l-571.2 61.696-4.8-317.696 203.2 22.592 126.080-466.048-137.28-4.544v-64h384l-124.864 562.112 124.864 13.888z"  horiz-adv-x="1024" />

    
    <glyph glyph-name="edit" unicode="&#59004;" d="M864 800c88.352 0 160-71.648 160-160 0-36.032-11.904-69.248-32-96l-64-64-224 224 64 64c26.752 20.096 59.968 32 96 32zM64 64l-64-288 288 64 592 592-224 224-592-592zM715.584 436.416l-448-448-55.168 55.168 448 448 55.168-55.168z"  horiz-adv-x="1024" />

    
    </font>
</defs>
</svg>
