<?xml version="1.0" standalone="no"?>
<!DOCTYPE svg PUBLIC "-//W3C//DTD SVG 1.1//EN" "http://www.w3.org/Graphics/SVG/1.1/DTD/svg11.dtd" >
<svg xmlns="http://www.w3.org/2000/svg">
  <metadata>Created by iconfont</metadata>
  <defs>
  <font id="iconfont" horiz-adv-x="1024">
    <font-face
      font-family="iconfont"
      font-weight="400"
      font-stretch="normal"
      units-per-em="1024"
      ascent="896"
      descent="-128"
    />
      <missing-glyph />
      
      <glyph glyph-name="duopingshezhi" unicode="&#59376;" d="M983.552 507.392l-66.048 9.216c-14.336 2.048-26.624 11.776-32.256 25.6-12.8 30.72-29.696 59.392-49.664 86.016-9.216 11.776-11.264 27.136-6.144 40.96l25.6 61.952c7.68 18.944 0 40.448-17.408 50.688l-143.36 82.432c-17.92 10.24-40.448 6.144-52.736-10.24l-40.96-52.224c-9.216-11.776-24.064-17.408-38.912-15.36-32.768 4.096-66.048 4.096-98.816 0-14.848-2.048-29.696 3.584-38.912 15.36l-40.96 52.224c-12.8 16.384-35.328 20.48-52.736 10.24l-143.36-82.432c-17.408-10.24-25.088-31.744-17.408-50.688l25.6-61.952c5.12-13.824 3.072-29.184-6.144-40.96-19.968-26.624-36.864-55.296-49.664-86.016-5.632-13.824-17.92-23.04-32.256-25.6l-66.56-9.216c-20.48-3.072-35.328-20.48-35.328-40.96v-165.376c0-20.48 15.36-37.888 35.328-40.96l66.048-9.216c14.336-2.048 26.624-11.776 32.256-25.6 12.8-30.72 29.696-59.392 49.664-86.016 9.216-11.776 11.264-27.136 6.144-40.96l-25.6-61.952c-7.68-18.944 0-40.448 17.408-50.688l142.848-82.432c17.92-10.24 40.448-6.144 52.736 10.24l40.96 52.224c9.216 11.776 24.064 17.408 38.912 15.36 32.768-4.096 66.048-4.096 98.816 0 14.848 2.048 29.696-3.584 38.912-15.36l40.96-52.224c12.8-16.384 35.328-20.48 52.736-10.24l142.848 82.432c17.408 10.24 25.088 31.744 17.408 50.688l-25.6 61.952c-5.12 13.824-3.072 29.184 6.144 40.96 19.968 26.624 36.864 55.296 49.664 86.016 5.632 13.824 17.92 23.04 32.256 25.6l66.048 9.216c20.48 3.072 35.328 19.968 35.328 40.96V466.432c1.536 20.992-13.312 38.4-33.792 40.96z m-472.064-284.16c-88.576 0-160.768 71.68-160.768 160.768s71.68 160.768 160.768 160.768 160.768-71.68 160.768-160.768c0-88.576-71.68-160.768-160.768-160.768z"  horiz-adv-x="1024" />
      
      <glyph glyph-name="wuliaoguanli" unicode="&#59375;" d="M343.04 433.664h337.92c32.768 0 59.392 26.624 59.392 59.904v337.92C740.352 864.256 713.728 890.88 680.96 890.88H343.04c-32.768 0-59.392-26.624-59.904-59.392v-337.92c0.512-33.28 27.136-59.904 59.904-59.904z m0 397.312h337.92v-337.92H343.04v337.92z m616.448-496.64h-337.92c-32.768 0-59.904-26.624-59.904-59.904v-337.92c0-32.768 26.624-59.904 59.904-59.904h337.92c32.768 0 59.392 26.624 59.392 59.392v337.92c0 33.792-26.624 60.416-59.392 60.416z m0-397.312h-337.92v337.92h337.92v-337.92zM402.432 334.336h-337.92c-32.768 0-59.392-26.624-59.392-59.904v-337.92c0-32.768 26.624-59.392 59.392-59.392h337.92c32.768 0 59.392 26.624 59.904 59.392v337.92c0 33.28-26.624 59.904-59.904 59.904 0.512 0 0.512 0 0 0z m0-397.312h-337.92v337.92h337.92v-337.92z m228.864 794.624c2.048-14.336-8.192-27.648-22.528-29.696-2.56-0.512-5.12-0.512-7.168 0h-179.2c-14.336-2.048-27.648 8.192-29.696 22.528-0.512 2.56-0.512 5.12 0 7.168-2.048 14.336 8.192 27.648 22.528 29.696 2.56 0.512 5.12 0.512 7.168 0h178.688c14.336 2.048 27.648-8.192 29.696-22.528 1.024-2.048 1.024-4.608 0.512-7.168zM114.688 175.104c-2.048 14.336 8.192 27.648 22.528 29.696 2.56 0.512 5.12 0.512 7.168 0h178.688c14.336 2.048 27.648-8.192 29.696-22.528 0.512-2.56 0.512-5.12 0-7.168 2.048-14.336-8.192-27.648-22.528-29.696-2.56-0.512-5.12-0.512-7.168 0H144.384c-14.336-2.048-27.648 8.192-29.696 22.528-0.512 2.56-0.512 5.12 0 7.168z m556.544 0c-2.048 14.336 8.192 27.648 22.528 29.696 2.56 0.512 5.12 0.512 7.168 0h178.688c14.336 2.048 27.648-8.192 29.696-22.528 0.512-2.56 0.512-5.12 0-7.168 2.048-14.336-8.192-27.648-22.528-29.696-2.56-0.512-5.12-0.512-7.168 0h-178.688c-14.336-2.048-27.648 7.68-29.696 22.528-0.512 2.56-0.512 4.608 0 7.168z"  horiz-adv-x="1024" />
      
      <glyph glyph-name="shujuhuoqushibai" unicode="&#59374;" d="M512 890.88C231.936 890.88 5.12 664.064 5.12 384s226.816-506.88 506.88-506.88 506.88 226.816 506.88 506.88c-1.024 279.552-227.328 505.856-506.88 506.88z m0-833.024c-30.208 0-54.272 24.064-54.272 54.272 0 30.208 24.064 54.272 54.272 54.272 30.208 0 54.272-24.064 54.272-54.272-0.512-29.696-24.576-53.76-54.272-54.272z m47.104 264.704c0-36.352-14.336-65.024-47.104-65.024s-47.104 29.184-47.104 65.024l-17.92 267.776c-0.512 34.816 26.624 63.488 61.44 65.024 35.328-1.024 64-29.696 65.024-65.024l-14.336-267.776z"  horiz-adv-x="1024" />
      
      <glyph glyph-name="shebeiguanli" unicode="&#59373;" d="M375.296 326.656c-31.232-14.848-44.544-52.736-29.696-83.968 15.36-31.232 52.736-44.032 83.968-29.696 31.232 14.848 44.544 52.736 29.696 83.968-15.36 31.232-52.736 44.544-83.968 29.696zM580.096 307.2l54.272 24.576-34.304 73.728-54.272-24.576c-12.288 16.896-28.672 31.232-47.104 41.984l19.968 56.832-76.8 27.136-19.968-51.712c-20.48 3.072-41.472 2.048-61.44-2.56L335.872 506.88l-73.728-34.304L286.72 418.304c-16.896-12.288-31.232-28.672-41.984-47.104l-56.832 19.968L158.72 312.32l56.832-19.968c-3.072-20.48-2.048-41.472 2.56-61.44L163.84 206.336l34.304-73.728 54.272 24.576c13.824-17.408 30.72-32.256 49.152-44.544L281.6 55.808l76.288-27.136 19.968 56.832c20.48-3.072 41.472-2.048 61.44 2.56l24.576-54.272 73.728 34.304-24.576 54.272c16.896 12.288 31.232 28.672 41.984 47.104l56.832-19.968 27.136 76.288-56.832 19.968c3.072 20.48 2.56 40.96-2.048 61.44z m-128-150.528c-58.368-29.696-130.048-6.144-159.744 52.736-1.024 2.048-2.048 4.608-3.072 6.656-29.184 59.904-4.096 132.096 56.32 161.28l3.072 1.536c62.464 26.624 134.144-2.56 160.768-65.024 24.576-59.392 0-128-57.344-157.184zM687.616 612.352c-23.04 0-41.984-18.944-41.984-41.984 0-23.04 18.432-41.984 41.472-41.984h0.512c23.04 0 41.984 18.944 41.984 41.984s-18.432 41.984-41.984 41.984zM797.696 640.512l29.696 29.696-39.424 39.424-29.696-29.696c-12.288 7.168-25.6 12.8-39.424 17.408v41.984h-56.832v-41.984c-13.824-3.584-27.136-8.192-39.424-14.848l-29.696 29.696-39.424-39.424 29.696-29.696c-7.168-12.288-12.8-25.6-17.408-39.424h-41.984v-56.832h41.984c2.56-13.824 7.168-27.648 14.848-39.424l-29.696-29.696 39.424-39.424 29.696 29.696c12.288-7.168 25.6-12.8 39.424-17.408v-41.984h56.832V450.56c13.824 3.584 27.136 8.192 39.424 14.848l29.696-29.696 39.424 39.424-29.696 29.696c7.168 12.288 12.8 25.6 17.408 39.424h41.984V601.088h-41.984c-3.584 13.824-8.704 27.136-14.848 39.424z m-104.448-152.576h-4.096c-46.08-0.512-83.456 36.352-83.968 82.432v1.536c-2.048 44.032 32.256 81.92 76.288 83.968h7.68-0.512c46.08 1.024 84.992-35.328 86.016-81.92 1.536-46.592-35.328-84.992-81.408-86.016zM795.136 890.88H228.864C105.472 890.88 5.12 790.528 5.12 667.136v-565.76C5.12-22.528 105.472-122.88 228.864-122.88h565.76c123.392 0 223.744 100.352 223.744 223.744V667.136C1018.88 790.528 918.528 890.88 795.136 890.88z m153.088-790.016c0-84.48-68.608-153.088-153.088-153.088H228.864c-84.48 0-153.088 68.608-153.088 153.088V667.136c0 84.48 68.608 153.088 153.088 153.088h565.76c84.48 0 153.088-68.608 153.088-153.088v-566.272z"  horiz-adv-x="1024" />
      
      <glyph glyph-name="dianxinliebiao" unicode="&#59371;" d="M924.16 891.392H105.984c-53.76 0-97.28-43.52-97.792-97.28v-613.376c0-53.76 44.032-97.792 97.792-97.792h105.472v-158.72c0-25.6 20.992-46.592 46.592-46.592 25.6 0.512 45.568 20.992 46.592 46.592v158.72h420.352v-158.72c0-25.6 20.992-46.592 46.592-46.592s46.592 20.992 46.592 46.592v158.72h105.472v15.872-15.872c53.76 0 97.792 43.52 98.304 97.28V794.112c0 53.76-44.032 97.28-97.792 97.28z m-148.992-715.264c-1.536 0-2.56 1.024-3.584 1.024-1.536 0-2.56-0.512-3.584-1.024H261.632c-1.536 0-2.56 1.024-3.584 1.024-1.536 0-2.56-0.512-3.584-1.024h-148.48c-2.56 0-5.12 2.048-5.12 4.608V793.6c0 2.56 2.048 4.608 5.12 5.12h818.176c2.56 0 5.12-2.048 5.12-4.608v-612.864c0-2.56-2.048-5.12-4.608-5.12h-149.504zM660.992 535.04H480.256L610.304 665.6c8.704 8.704 13.824 20.48 13.824 32.768 0 12.288-4.608 24.064-13.312 32.768-17.92 17.92-47.616 17.92-65.536 0l-209.92-209.92c-13.824-13.312-17.408-33.28-10.24-50.688 7.168-17.408 24.064-29.184 43.008-29.184h181.248l-130.56-131.072c-17.408-17.92-17.408-47.616 0-65.536 8.704-8.704 20.48-13.312 32.768-13.312h0.512l12.288 0.512 0.512 1.536c7.168 2.048 14.336 6.144 19.968 11.264l209.408 210.432c13.824 13.312 17.408 33.28 10.24 50.688-7.68 17.408-24.576 29.184-43.52 29.184z"  horiz-adv-x="1024" />
      
      <glyph glyph-name="gongzhuangguanli" unicode="&#59372;" d="M947.71712 160.83456l57.344 15.36c9.728 2.048 15.872 11.776 13.824 21.504v0.512l-10.752 40.96c-2.56 9.728-12.288 15.36-22.016 12.8l-57.344-15.872c-5.12 9.216-11.264 18.432-17.92 26.624l38.4 45.568c6.656 7.168 6.144 18.944-1.024 25.6l-1.024 1.024-16.896 14.336c17.408-9.728 38.912-3.584 48.64 13.824 3.072 5.632 4.608 11.776 4.608 17.92v199.68c0 12.8-6.656 25.088-17.92 31.744l-453.632 252.416a35.584 35.584 0 0 1-36.352 0l-452.608-253.44c-11.264-6.656-18.432-18.432-17.92-31.744v-633.344c0-19.968 16.384-36.352 36.352-36.352 19.968 0 36.352 16.384 36.352 36.352v612.352l416.256 232.96 416.256-232.96v-177.664c0-8.192 3.072-15.872 8.192-22.528l-4.096 3.584c-7.68 6.656-18.944 5.632-25.6-2.048l-37.888-45.568c-14.336 7.168-29.696 12.8-45.056 15.872v59.392c0 10.24-8.192 17.92-17.92 17.92h-41.472c-10.24 0-17.92-8.192-17.92-17.92v-59.392c-10.24-2.048-20.48-5.632-30.72-9.728l-33.792 48.128c-5.632 8.192-16.896 10.24-25.088 4.608l-34.816-24.064c-8.192-5.632-10.24-16.896-4.608-25.088l33.792-48.64c-7.68-7.68-14.336-16.384-20.48-25.088l-55.808 20.48c-9.216 3.584-19.968-1.024-23.552-10.752l-14.336-39.424c-3.584-9.216 1.024-19.968 10.752-23.552l55.296-20.48c-1.024-7.68-1.536-15.872-2.048-24.064v-8.192l-57.344-15.36c-9.728-2.048-15.872-11.776-13.312-21.504v-0.512l10.752-40.96c2.56-9.728 12.288-15.36 22.016-12.8l57.344 15.36c5.12-9.216 11.264-18.432 17.92-26.624l-37.888-45.568c-6.656-7.68-6.144-18.944 1.536-25.6l0.512-0.512 32.256-26.624c7.68-6.656 18.944-5.632 25.6 2.048l37.888 45.568c14.336-7.168 29.696-12.8 45.056-15.872v-59.392c0-10.24 8.192-17.92 17.92-17.92h41.984c10.24 0 17.92 8.192 17.92 17.92v58.88c10.752 2.048 20.992 5.12 30.72 8.704l33.792-48.64c5.632-8.192 16.896-10.24 25.088-4.608l33.792 25.088c8.192 5.632 10.24 16.896 4.608 25.088l-33.28 48.64c7.68 7.68 14.336 16.384 20.48 25.088l55.808-20.48c9.216-3.584 19.968 1.024 23.552 10.752l14.336 39.424c3.584 9.216-0.512 19.968-9.728 23.552-0.512 0-1.024 0.512-1.536 0.512l-55.296 20.48c1.024 7.68 1.536 15.872 2.048 24.064v8.192z m-182.784-118.272c-60.416 0-109.568 49.152-109.568 109.568s49.152 109.568 109.568 109.568 109.568-49.152 109.568-109.568c0-60.416-48.64-109.568-109.568-109.568zM547.84512 471.10656c0 19.968-16.384 36.352-36.352 36.352h-325.632c-19.968 0-36.352-15.872-36.352-35.84s15.872-36.352 35.84-36.352H512.00512c19.968 0 35.84 15.872 35.84 35.84z m-108.544-189.952h-253.44c-19.968 0-36.352-15.872-36.352-35.84s15.872-36.352 35.84-36.352h253.952c19.968 0 36.352 16.384 35.84 36.352 0.512 19.968-15.872 35.84-35.84 35.84z"  horiz-adv-x="1024" />
      
      <glyph glyph-name="bianliangzhuanhuan" unicode="&#59370;" d="M133.632-80.896C61.952-79.872 4.096-20.48 5.12 51.712v144.384c-1.024 72.192 56.32 131.584 128.512 132.608h246.784c72.192-1.024 129.536-60.416 128.512-132.608V51.2c1.024-72.192-56.32-131.584-128.512-132.608H133.632v0.512z m0 331.776c-30.208-0.512-53.76-25.088-53.248-55.296V51.2c-0.512-30.208 23.552-54.784 53.248-55.296h246.272c30.208 0.512 53.76 25.088 53.248 55.296v144.384c0.512 30.208-23.552 54.784-53.248 55.296H133.632z m496.128-314.88c-17.92 0-32.256 13.824-32.256 31.744-0.512 19.456 14.848 35.328 34.304 35.84h2.56c24.064 3.584 48.128 9.728 71.68 17.408l1.024 0.512h1.024c27.136 12.288 50.176 30.72 67.584 54.784l0.512 1.024 1.536 1.024h0.512c27.136 26.624 45.568 60.928 52.736 98.304 0.512 3.072 1.024 5.632 1.536 8.192l0.512 2.56c3.584 16.384 5.632 33.28 6.144 50.176 0 3.584 0 7.168-0.512 10.24-0.512 3.072-0.512 6.144-0.512 8.704l-38.4-46.592c-6.144-7.68-15.36-12.8-25.6-13.312-4.608 0-9.216 1.024-13.312 3.072-8.704 4.096-15.36 11.776-17.92 20.992-1.536 9.216 1.024 18.432 6.144 25.6l0.512 0.512 86.528 107.52c10.752 11.264 24.576 17.92 39.936 19.968 18.944-1.536 36.352-12.8 45.056-29.696l77.824-112.64s12.288-17.92-9.216-40.448c-6.144-6.656-14.336-10.752-23.552-11.264-6.144 0-12.8 2.56-17.408 6.656L906.24 245.76v-17.408c-2.56-128-84.48-240.64-205.824-282.112-4.608-2.048-8.704-3.072-13.824-4.096l-4.096-1.024c-12.288-3.072-24.064-5.12-33.792-6.656H629.76v1.536z m-466.432 460.8c-19.456 1.024-37.376 12.8-45.568 30.72L44.544 543.232s-12.288 17.92 9.216 40.448c6.144 6.656 14.336 10.752 23.552 11.264 6.144 0 12.8-2.56 17.408-6.656L138.24 530.944v7.68c0.512 26.112 3.584 51.712 8.704 77.312 14.848 54.272 44.032 103.424 83.968 142.848 39.424 37.888 89.088 63.488 142.848 73.728 17.408 4.096 35.84 5.12 53.76 4.608 10.24 0 15.872-13.824 16.384-26.624 2.56-20.48-12.288-39.424-33.28-41.472h-3.584l-2.048-1.024c-20.992-3.584-41.472-9.216-60.928-16.896-38.912-16.384-72.704-43.52-96.768-78.336l-4.608-6.656-2.048 1.536c-13.824-22.528-24.064-47.104-29.184-72.704l-0.512-3.072-1.024-1.536v-0.512c-3.584-17.408-5.12-34.816-5.12-52.224v-4.096c0-3.072 0.512-6.656 0.512-10.24 0-1.536 0-2.56 0.512-4.096l34.304 41.984c6.144 7.68 15.36 12.8 25.6 13.312 4.608 0 9.216-1.024 13.312-3.072 8.704-3.584 15.36-11.264 17.92-20.48 1.536-9.216-1.024-18.432-6.144-25.6v-0.512l-87.04-107.52c-10.24-11.264-24.576-18.432-40.448-20.48z m480.768 43.52c-72.192 1.024-129.536 60.416-128.512 132.608V716.8c-1.024 72.192 56.32 131.584 128.512 132.608h246.272C962.56 848.384 1019.904 788.992 1018.88 716.8v-144.384c1.024-72.192-56.32-131.584-128.512-132.608h-245.76l-0.512 0.512z m0 331.776c-30.208-0.512-53.76-25.6-52.736-55.808v-144.384c-0.512-30.208 23.552-54.784 53.248-55.296h245.76c30.208 0.512 53.76 25.088 53.248 55.296V716.8c0.512 30.208-23.552 54.784-53.248 55.296h-246.272z"  horiz-adv-x="1024" />
      
      <glyph glyph-name="BOMguanli" unicode="&#59369;" d="M978.944 494.592c-10.752 8.192-23.04 14.848-36.352 18.944V836.608c0 27.136-22.016 49.152-49.152 49.152h-650.24c-27.136 0-49.152-22.016-49.152-49.152v-58.88H130.048c-27.136 0-49.152-22.016-49.152-49.152v-100.864c-12.8-4.096-25.088-10.24-36.352-18.944-21.504-16.384-34.304-40.96-34.304-68.096V-25.6c0.512-26.624 13.312-51.712 34.304-68.096 20.992-15.872 46.592-24.576 72.704-24.576H906.24c26.112 0 51.712 8.192 72.704 24.576 21.504 16.384 34.304 40.96 34.304 68.096V426.496c0 27.136-12.8 51.712-34.304 68.096zM265.216 814.592h605.696v-295.424h-39.424v209.92c0 27.136-22.016 49.152-49.152 49.152h-517.12v36.352zM760.32 706.56v-187.904H471.552v22.528c-0.512 26.624-13.312 51.712-34.304 68.096-20.992 15.872-46.592 24.576-72.704 24.576H152.576V706.56h607.744zM942.08-25.6c0-8.704-13.824-20.992-35.84-20.992H117.76c-22.016 0-35.84 12.288-35.84 20.992V426.496v1.536 113.152c0 8.704 13.824 20.992 35.84 20.992h246.784c22.016 0 35.84-12.288 35.84-20.992v-55.296c0-13.824 8.192-26.112 19.456-31.744 5.632-4.096 12.8-6.656 20.48-6.656h465.92c22.016 0 35.84-12.288 35.84-20.992V-25.6zM308.224 220.672c10.24 3.584 18.944 9.728 25.088 17.92 6.144 8.192 9.216 18.432 9.216 30.72 0 16.384-5.632 29.696-17.408 38.912-11.776 10.24-28.16 14.848-49.152 14.848H177.664v-215.04h98.304c23.04 0 40.448 4.096 53.248 12.8 14.848 10.24 22.016 26.112 22.016 47.616 0 14.848-3.584 26.112-10.752 34.816-7.168 8.704-17.92 14.336-32.256 17.408z m-97.792 75.264h57.344c14.848 0 25.6-2.56 31.744-7.68 6.656-4.608 9.728-12.8 9.728-23.552 0-11.264-3.072-19.968-9.728-25.088-6.656-5.12-17.408-7.68-32.256-7.68h-56.32v64z m93.184-154.112c-8.192-4.608-18.944-6.656-32.256-6.656H210.432V204.8h61.44c15.872 0 27.648-2.56 34.816-8.192 7.68-5.632 11.264-14.848 11.264-27.648 0.512-12.288-4.608-20.992-14.336-27.136zM479.232 327.168c-33.28 0-58.88-10.752-77.312-32.256-17.92-20.48-26.624-46.592-26.624-79.872 0-32.768 8.704-59.392 26.624-79.36 18.944-21.504 44.544-31.744 77.312-31.744s58.368 10.752 77.312 31.744c17.92 20.48 27.136 47.104 27.136 79.872 0 33.28-9.216 59.904-27.136 79.872-18.432 20.992-44.544 31.744-77.312 31.744z m53.248-172.032c-12.288-14.848-30.208-22.016-52.736-22.016s-40.448 7.68-53.248 23.04c-12.288 14.848-17.92 34.816-17.92 59.392 0 25.088 6.144 45.056 17.92 59.904 12.288 15.36 30.208 23.04 53.248 23.04s40.96-7.68 52.736-22.016c12.288-14.848 18.432-35.328 18.432-60.928s-6.144-45.568-18.432-60.416zM731.648 151.04h-1.024l-74.752 172.032h-38.912v-215.04h32.768v153.6h1.024l66.048-153.6h28.16l66.048 153.6h1.024v-153.6h33.28v215.04h-38.912z"  horiz-adv-x="1024" />
      
      <glyph glyph-name="yinpin1" unicode="&#59368;" d="M949.16096 821.24288h-874.496c-26.624 0-48.64-21.504-48.64-48.64v-777.216c0-26.624 21.504-48.64 48.64-48.64h873.984c26.624 0 48.64 21.504 48.64 48.64v777.216c0.512 26.624-21.504 48.64-48.128 48.64zM949.16096-71.68512h-874.496c-36.864 0-67.072 30.208-67.072 67.072v777.216c0 36.864 30.208 67.072 67.072 67.072h873.984c36.864 0 67.072-30.208 67.072-67.072v-777.216c0.512-36.864-29.696-67.072-66.56-67.072z m-874.496 873.984c-16.384 0-29.696-13.312-29.696-29.696v-777.216c0-16.384 13.312-29.696 29.696-29.696h873.984c16.384 0 29.696 13.312 29.696 29.696v777.216c0 16.384-13.312 29.696-29.696 29.696h-873.984zM668.16 669.696L426.496 595.968c-30.208-9.216-51.2-36.864-52.736-68.096v-254.464c-17.408 8.704-37.888 10.752-56.32 6.144-53.248-4.096-96.768-45.056-103.936-98.304 0-46.08 46.592-74.24 103.936-66.048 52.224 3.584 94.208 44.544 99.328 96.768v245.76c0 19.968 24.576 29.184 24.576 29.184L655.36 553.984s23.552 7.68 23.552-13.824v-203.264c-18.944 8.704-40.448 11.264-60.928 7.68-53.248-3.072-96.768-43.52-103.936-96.256 0-46.08 46.592-75.264 103.936-68.096 53.248 3.072 97.28 43.52 103.936 96.256V632.32c1.024 21.504-15.872 39.936-37.888 40.448-5.632-0.512-10.752-1.024-15.872-3.072z"  horiz-adv-x="1024" />
      
      <glyph glyph-name="gongweikanban" unicode="&#59367;" d="M873.984 890.88c19.968 0 36.352-16.384 36.352-36.352V-87.04c0-19.968-16.384-36.352-36.352-36.352H150.016c-19.968 0-36.352 16.384-36.352 36.352V854.528c0 19.968 16.384 36.352 36.352 36.352h723.968z m-45.056-81.408H195.072v-850.944h633.344V809.472z m-465.92-400.384c4.608 0.512 8.192-2.56 9.216-6.656v-56.32c0.512-4.608-2.56-8.192-6.656-9.216H267.264c-4.608-0.512-8.192 2.56-9.216 6.656v56.32c-0.512 4.608 2.56 8.192 6.656 9.216h98.304z m202.752 0c4.608 0.512 8.192-2.56 9.216-6.656v-56.32c0.512-4.608-2.56-8.192-6.656-9.216H470.016c-4.608-0.512-8.192 2.56-9.216 6.656v56.32c-0.512 4.608 2.56 8.192 6.656 9.216h98.304z m190.976 0c4.608 0.512 8.704-2.56 9.216-6.656v-56.32c0.512-4.608-2.56-8.192-6.656-9.216H661.504c-4.096-0.512-8.192 2.56-9.216 6.656v56.32c-0.512 4.608 2.56 8.192 6.656 9.216H756.736z m-8.704 336.896c10.24 0 17.92-8.192 17.92-17.92v-217.088c0-10.24-8.192-17.92-17.92-17.92H276.48c-10.24 0-17.92 8.192-17.92 17.92V728.064c0 10.24 8.192 17.92 17.92 17.92h471.552z m-45.568-62.976H321.536v-126.464h380.928V683.008z"  horiz-adv-x="1024" />
      
      <glyph glyph-name="yinpin" unicode="&#59366;" d="M949.16096 821.24288h-874.496c-26.624 0-48.64-21.504-48.64-48.64v-777.216c0-26.624 21.504-48.64 48.64-48.64h873.984c26.624 0 48.64 21.504 48.64 48.64v777.216c0.512 26.624-21.504 48.64-48.128 48.64zM949.16096-71.68512h-874.496c-36.864 0-67.072 30.208-67.072 67.072v777.216c0 36.864 30.208 67.072 67.072 67.072h873.984c36.864 0 67.072-30.208 67.072-67.072v-777.216c0.512-36.864-29.696-67.072-66.56-67.072z m-874.496 873.984c-16.384 0-29.696-13.312-29.696-29.696v-777.216c0-16.384 13.312-29.696 29.696-29.696h873.984c16.384 0 29.696 13.312 29.696 29.696v777.216c0 16.384-13.312 29.696-29.696 29.696h-873.984zM668.16 669.696L426.496 595.968c-30.208-9.216-51.2-36.864-52.736-68.096v-254.464c-17.408 8.704-37.888 10.752-56.32 6.144-53.248-4.096-96.768-45.056-103.936-98.304 0-46.08 46.592-74.24 103.936-66.048 52.224 3.584 94.208 44.544 99.328 96.768v245.76c0 19.968 24.576 29.184 24.576 29.184L655.36 553.984s23.552 7.68 23.552-13.824v-203.264c-18.944 8.704-40.448 11.264-60.928 7.68-53.248-3.072-96.768-43.52-103.936-96.256 0-46.08 46.592-75.264 103.936-68.096 53.248 3.072 97.28 43.52 103.936 96.256V632.32c1.024 21.504-15.872 39.936-37.888 40.448-5.632-0.512-10.752-1.024-15.872-3.072z"  horiz-adv-x="1024" />
      
      <glyph glyph-name="canshupeizhi" unicode="&#59365;" d="M973.824 885.76H50.176C28.16 885.76 10.24 867.84 10.24 845.824v-923.136c0-22.016 17.92-39.936 39.936-39.936h923.136c22.016 0 39.936 17.92 39.936 39.936V845.824c0.512 22.016-17.408 39.936-39.424 39.936z m-50.176-913.408H100.352V795.648h822.784l0.512-823.296zM296.448 169.472v-96.768c0-5.632 4.608-10.24 10.24-10.24h60.416c5.632 0 10.24 4.608 10.24 10.24v96.768c-12.8-4.096-26.624-6.144-39.936-6.144-14.848 0-28.16 2.048-40.96 6.144z m79.872 248.32V695.296c0 5.632-4.608 10.24-10.24 10.24H306.176c-5.632 0-10.24-4.608-10.24-10.24v-276.992c12.8 4.096 26.624 6.144 39.936 6.144 14.336-0.512 27.648-2.56 40.448-6.656z m-79.872-248.32c12.8-4.096 26.624-6.144 39.936-6.144 13.824 0 27.136 2.048 39.936 6.144 68.608 22.016 105.984 95.744 83.968 164.352-12.8 39.936-44.032 71.168-83.968 83.968-12.8 4.096-26.624 6.144-39.936 6.144-13.824 0-27.136-2.048-39.936-6.144-68.608-22.016-105.984-95.744-83.968-164.352 12.8-39.936 44.032-71.168 83.968-83.968z m0 145.408c0.512 0.512 1.024 1.536 1.024 2.048l1.536 2.048 0.512 0.512c0.512 0.512 1.024 1.024 1.024 1.536l0.512 0.512c0.512 0.512 1.024 1.536 1.536 2.048l0.512 0.512 1.536 1.536 0.512 0.512c0.512 0.512 1.024 1.024 2.048 1.536 0.512 0.512 1.536 1.024 2.048 1.536l0.512 0.512c0.512 0.512 1.024 1.024 1.536 1.024l0.512 0.512c0.512 0.512 1.536 1.024 2.56 1.536 1.024 0.512 0.512 0 0.512 0l2.048 1.024 0.512 0.512c1.024 0.512 1.536 0.512 2.56 1.024s1.536 0.512 2.56 1.024h0.512c0.512 0 1.536 0.512 2.048 0.512h0.512c1.024 0 2.048 0.512 2.56 0.512h13.824c1.024 0 2.048-0.512 2.56-0.512h0.512l2.048-0.512h0.512c1.024 0 1.536-0.512 2.56-1.024s1.536-0.512 2.56-1.024l0.512-0.512c0.512-0.512 1.536-0.512 2.048-1.024h0.512c1.024-0.512 1.536-1.024 2.56-1.536l0.512-0.512c0.512-0.512 1.024-0.512 1.536-1.024l0.512-0.512c0.512-0.512 1.536-1.024 2.048-1.536 0.512-0.512 1.536-1.024 2.048-1.536l0.512-0.512 1.536-1.536 0.512-0.512c0.512-0.512 1.024-1.536 1.536-2.048l0.512-0.512c0.512-0.512 1.024-1.024 1.024-1.536l0.512-0.512 1.536-2.048c0.512-0.512 1.024-1.536 1.024-2.048 6.656-13.312 6.656-28.672 0-41.984-0.512-0.512-1.024-1.536-1.024-2.048l-1.536-2.048-0.512-0.512c-0.512-0.512-1.024-1.024-1.024-1.536l-0.512-0.512c-0.512-0.512-1.024-1.536-1.536-2.048l-0.512-0.512-1.536-1.536-0.512-0.512c-0.512-0.512-1.024-1.024-2.048-1.536-0.512-0.512-1.536-1.024-2.048-1.536l-0.512-0.512c-0.512-0.512-1.024-1.024-1.536-1.024l-0.512-0.512c-0.512-0.512-1.536-1.024-2.56-1.536-1.024-0.512-0.512 0-0.512 0l-2.048-1.024-0.512-0.512c-1.024-0.512-1.536-0.512-2.56-1.024s-1.536-0.512-2.56-1.024h-0.512c-0.512 0-1.536-0.512-2.048-0.512h-0.512c-1.024 0-2.048-0.512-2.56-0.512h-11.776-0.512c-1.024 0-2.048 0.512-2.56 0.512h-0.512l-2.048 0.512h-0.512c-1.024 0-1.536 0.512-2.56 1.024s-1.536 0.512-2.56 1.024l-0.512 0.512c-0.512 0.512-1.536 0.512-2.048 1.024h-0.512c-1.024 0.512-1.536 1.024-2.56 1.536l-0.512 0.512c-0.512 0.512-1.024 0.512-1.536 1.024l-0.512 0.512c-0.512 0.512-1.536 1.024-2.048 1.536-0.512 0.512-1.536 1.024-2.048 1.536l-0.512 0.512-1.536 1.536-0.512 0.512c-0.512 0.512-1.024 1.536-1.536 2.048l-0.512 0.512c-0.512 0.512-1.024 1.024-1.024 1.536l-0.512 0.512-1.536 2.048c-0.512 0.512-1.024 1.536-1.024 2.048-8.704 12.8-8.704 28.672-1.536 41.984z m351.232 35.328v-276.992c0-5.632 4.608-10.24 10.24-10.24h60.416c5.632 0 10.24 4.608 10.24 10.24v276.992c-12.8-4.096-26.624-6.144-39.936-6.144-14.848 0-28.16 2.048-40.96 6.144z m79.872 248.32V695.296c0 5.632-4.608 10.24-10.24 10.24h-60.416c-5.632 0-10.24-4.608-10.24-10.24v-96.768c12.8 4.096 26.624 6.144 39.936 6.144 14.848 0 28.16-2.048 40.96-6.144z m-79.872-248.32c12.8-4.096 26.624-6.144 39.936-6.144 13.824 0 27.136 2.048 39.936 6.144 68.608 22.016 105.984 95.744 83.968 164.352-12.8 39.936-44.032 71.168-83.968 83.968-12.8 4.096-26.624 6.144-39.936 6.144-13.824 0-27.136-2.048-39.936-6.144-68.608-22.016-105.984-95.744-83.968-164.352 12.8-39.936 44.032-71.168 83.968-83.968z m0 144.896c0.512 0.512 1.024 1.536 1.024 2.048l1.536 2.048 0.512 0.512c0.512 0.512 1.024 1.024 1.024 1.536l0.512 0.512c0.512 0.512 1.024 1.536 1.536 2.048l0.512 0.512 1.536 1.536 0.512 0.512c0.512 0.512 1.024 1.024 2.048 1.536 0.512 0.512 1.536 1.024 2.048 1.536l0.512 0.512c0.512 0.512 1.024 1.024 1.536 1.024l0.512 0.512c0.512 0.512 1.536 1.024 2.56 1.536 1.024 0.512 0.512 0 0.512 0l2.048 1.024 0.512 0.512c1.024 0.512 1.536 0.512 2.56 1.024s1.536 0.512 2.56 1.024h0.512c0.512 0 1.536 0.512 2.048 0.512h0.512c1.024 0 2.048 0.512 2.56 0.512h12.288c1.024 0 2.048-0.512 2.56-0.512h0.512l2.048-0.512h0.512c1.024 0 1.536-0.512 2.56-1.024s1.536-0.512 2.56-1.024l0.512-0.512 2.048-1.024h0.512c1.024-0.512 1.536-1.024 2.56-1.536l0.512-0.512c0.512-0.512 1.024-0.512 1.536-1.024l0.512-0.512c0.512-0.512 1.536-1.024 2.048-1.536 0.512-0.512 1.536-1.024 2.048-1.536l0.512-0.512 1.536-1.536 0.512-0.512c0.512-0.512 1.024-1.536 1.536-2.048l0.512-0.512c0.512-0.512 1.024-1.024 1.024-1.536l0.512-0.512 1.536-2.048c0.512-0.512 1.024-1.536 1.024-2.048 6.656-13.312 6.656-28.672 0-41.984-0.512-0.512-1.024-1.536-1.024-2.048l-1.536-2.048-0.512-0.512c-0.512-0.512-1.024-1.024-1.024-1.536l-0.512-0.512c-0.512-0.512-1.024-1.536-1.536-2.048l-0.512-0.512-1.536-1.536-0.512-0.512c-0.512-0.512-1.024-1.024-2.048-1.536-0.512-0.512-1.536-1.024-2.048-1.536l-0.512-0.512c-0.512-0.512-1.024-1.024-1.536-1.024l-0.512-0.512c-0.512-0.512-1.536-1.024-2.56-1.536s-0.512 0-0.512 0l-2.048-1.024-0.512-0.512c-1.024-0.512-1.536-0.512-2.56-1.024s-1.536-0.512-2.56-1.024h-0.512c-0.512 0-1.536-0.512-2.048-0.512h1.536c-1.024 0-2.048-0.512-2.56-0.512h-11.776-0.512c-1.024 0-2.048 0.512-2.56 0.512h-0.512l-2.048 0.512h-0.512c-1.024 0-1.536 0.512-2.56 1.024s-1.536 0.512-2.56 1.024l-0.512 0.512c-0.512 0.512-1.536 0.512-2.048 1.024h-2.56c-1.024 0.512-1.536 1.024-2.56 1.536l-0.512 0.512c-0.512 0.512-1.024 0.512-1.536 1.024l-0.512 0.512c-0.512 0.512-1.536 1.024-2.048 1.536-0.512 0.512-1.536 1.024-2.048 1.536l-0.512 0.512-1.536 1.536-0.512 0.512c-0.512 0.512-1.024 1.536-1.536 2.048l-0.512 0.512c-0.512 0.512-1.024 1.024-1.024 1.536l-0.512 0.512-1.536 2.048c-0.512 0.512-1.024 1.536-1.024 2.048-7.168 13.312-7.168 29.184 0 41.984z"  horiz-adv-x="1024" />
      
      <glyph glyph-name="SOPguanli" unicode="&#59363;" d="M741.376 161.792h-256c-9.728-0.512-18.944-4.608-25.6-11.776s-10.24-16.384-9.728-26.112c1.024-18.944 16.384-34.304 35.328-35.328h256.512c9.728 0.512 18.944 4.608 25.6 11.776s10.24 16.384 9.728 26.112c-1.536 18.944-16.896 34.304-35.84 35.328zM485.376 606.208h256c19.968 1.024 35.84 17.92 35.328 37.888-1.024 18.944-16.384 34.304-35.328 35.328h-256c-9.728-0.512-18.944-4.608-25.6-11.776s-10.24-16.384-9.728-26.112c1.024-19.456 16.384-34.816 35.328-35.328zM485.376 347.136h256c19.968 1.024 35.84 17.92 35.328 37.888-1.024 18.944-16.384 34.304-35.328 35.328h-256c-9.728-0.512-18.944-4.608-25.6-11.776s-10.24-16.384-9.728-26.112c1.024-18.944 16.384-34.304 35.328-35.328zM250.368 363.52c6.656-23.552 24.576-42.496 47.616-50.688v-72.704c-29.184-10.752-48.64-38.912-48.64-70.144-1.024-38.4 28.16-71.168 66.56-75.264h5.12c36.352 0 67.584 27.136 72.192 62.976 6.144 36.864-15.872 71.68-50.688 82.944v72.704c17.408 6.144 31.744 17.92 40.448 33.792 9.728 17.408 12.288 37.376 7.168 56.832-6.656 23.552-24.576 42.496-47.616 50.688V526.848c33.28 11.264 54.272 45.056 49.664 79.872-2.048 19.456-11.264 36.352-26.112 48.64-14.848 12.288-33.792 17.92-52.736 16.384-34.304-3.072-61.952-30.72-65.024-65.024-4.608-35.328 16.384-68.608 49.664-80.384v-72.704c-37.376-12.288-58.368-51.712-47.616-90.112z m73.216-8.192c-15.36 0.512-28.16 13.312-27.648 28.672 0.512 15.36 13.312 27.136 28.672 26.624 15.36-0.512 27.136-13.312 26.624-28.672-0.512-15.36-12.8-26.624-27.648-26.624z m-28.672-185.856c-0.512 15.36 11.264 28.16 26.112 29.184h2.048c7.168 0 14.336-3.072 19.456-8.192 5.12-5.632 8.192-12.8 7.68-20.48 0.512-15.36-11.264-28.16-26.112-28.672-7.168-0.512-14.336 2.048-19.968 7.168-5.632 5.12-8.704 11.776-9.216 18.944v2.048z m56.32 428.544c0-7.68-2.56-14.848-7.68-19.968s-11.776-8.192-19.456-8.192c-7.168 0-14.336 2.56-19.968 8.192-5.12 5.632-8.192 12.8-8.192 20.48-0.512 15.36 11.264 28.16 26.112 28.672h1.536c14.848 0 26.624-11.264 27.648-26.112v-3.072zM929.792 872.96c-6.144 6.144-14.848 9.728-23.552 9.728H117.76c-18.432 0-33.28-14.848-33.28-33.28V-81.92c0-18.432 14.848-33.28 33.28-33.28h788.48c18.432 0 33.28 14.848 33.28 33.28V849.408c0 9.216-3.072 17.408-9.728 23.552z m-56.32-56.832v-864.768H150.528V816.128h722.944zM906.24 875.52z"  horiz-adv-x="1024" />
      
      <glyph glyph-name="peifangbanben" unicode="&#59364;" d="M962.56 877.568H232.96v-75.264h696.832v-784.384h75.776V834.56c0 24.064-19.456 43.008-43.008 43.008zM753.152 755.712H61.44c-23.552 0-43.008-19.456-43.52-43.008V-66.56c0-23.552 19.456-43.008 43.52-43.008h691.712c23.552 0 43.008 19.456 43.52 43.008V712.192c-0.512 24.064-19.456 43.52-43.52 43.52z m-32.256-75.776v-714.752H94.208V679.936h626.688zM620.544 118.784H194.048c-20.992 0-37.888-16.896-37.888-37.888 0-20.992 16.896-37.888 37.888-37.888h426.496c20.992 0 37.888 16.896 37.888 37.888 0 20.992-16.896 37.888-37.888 37.888zM373.76 176.64c6.656-11.776 19.456-18.944 32.768-18.944h1.024c13.312 0 26.112 7.168 32.768 18.944l214.016 370.176c10.24 17.92 4.096 41.472-13.824 51.712s-41.472 4.096-51.712-13.824l-181.76-314.368-181.248 314.88c-10.24 17.92-33.792 24.064-51.712 13.824s-24.064-33.792-13.824-51.712L373.76 176.64z"  horiz-adv-x="1024" />
      
      <glyph glyph-name="buliangpinguanli" unicode="&#59361;" d="M428.7488-122.7776h-268.8c-84.48 0.512-152.576 69.12-152.064 153.088V737.8944c-0.512 83.968 67.584 152.576 152.064 153.088h589.824c84.48-0.512 152.576-69.12 152.064-153.088v-247.808c0-19.456-15.872-34.816-34.816-34.816-19.456 0-34.816 15.872-34.816 34.816v247.808c0 45.568-36.352 82.432-81.92 82.432H159.9488c-45.568 0-81.92-36.864-81.92-82.432v-707.072c0-45.568 36.352-82.432 81.92-82.432h268.8c19.456 0 35.328-15.872 35.328-35.328-0.512-19.968-16.384-35.84-35.328-35.84zM730.8288-116.6336c-157.696 0-285.696 128-285.696 285.696s128 285.696 285.696 285.696 285.696-128 285.696-285.696c-0.512-157.696-128.512-285.184-285.696-285.696z m0 495.104c-115.712 0-209.408-93.696-209.408-209.408s93.696-209.408 209.408-209.408c115.712 0 209.408 93.696 209.408 209.408-0.512 115.712-94.208 209.408-209.408 209.408z m-138.752 241.664h-413.184c-20.992 0-37.888 16.896-37.888 37.888 0 20.992 16.896 37.888 37.888 37.888h413.184c20.992 0 37.888-16.896 37.888-37.888 0-20.48-16.896-37.888-37.888-37.888z m-223.232-190.464h-190.464c-20.992 0-37.888 16.896-37.888 37.888 0 20.992 16.896 37.888 37.888 37.888h190.464c20.992 0 37.888-16.896 37.888-37.888 0.512-20.48-16.384-37.888-37.888-37.888zM812.7488 37.9904c-12.288 0-23.552 4.608-32.256 13.312l-160.768 160.768c-17.92 17.92-17.92 46.592 0 64.512s46.592 17.92 64.512 0l160.768-160.768c17.92-17.92 17.92-46.592 0-64.512-8.704-8.704-19.968-13.312-32.256-13.312zM651.9808 37.9904c-25.088 0-45.568 20.48-45.568 45.568 0 12.288 4.608 23.552 13.312 32.256l160.768 160.768c17.92 17.92 46.592 17.92 64.512 0s17.92-46.592 0-64.512l-160.768-160.768c-8.704-8.704-20.48-13.312-32.256-13.312z"  horiz-adv-x="1024" />
      
      <glyph glyph-name="gongdanguanli" unicode="&#59362;" d="M938.92608 883.33312h-622.08c-44.032 0-80.384-35.84-80.384-79.872v-64.512h-151.552c-44.032 0-79.872-35.84-79.872-79.872v-693.76c0-44.032 35.84-79.872 79.872-79.872h622.08c44.032 0 79.872 35.84 79.872 79.872v64.512h151.552c44.032 0 79.872 35.84 79.872 79.872v693.76c0.512 44.032-35.328 79.872-79.36 79.872z m-233.984-771.584v-144.896h-617.472v689.152h617.472v-544.256z m231.424 0h-149.504v547.328c0 44.032-35.84 79.872-79.872 79.872h-388.096v62.464h617.472v-689.664zM136.62208 488.06912h372.736v-75.264h-372.736v75.264z m0-323.072h372.736v-75.264h-372.736v75.264z m0 161.792h210.944v-75.264h-210.944v75.264z"  horiz-adv-x="1024" />
      
      <glyph glyph-name="dianjiangongxu" unicode="&#59360;" d="M971.776 885.76H52.224C29.184 885.76 10.24 866.816 10.24 843.776v-920.064c0-23.04 18.944-41.984 41.984-41.984h920.064c23.04 0 41.984 18.944 41.984 41.984V843.776c-0.512 23.04-19.456 41.984-42.496 41.984z m-41.472-83.456v-138.24H93.696v138.24h836.608zM93.696-34.304v614.4h836.096v-614.4H93.696z m544.768 246.272c59.392 86.528 37.888 204.8-48.64 264.192s-204.8 37.888-264.192-48.64c-59.392-86.528-37.888-204.8 48.64-264.192 64.512-44.544 150.016-44.544 214.528-0.512l82.432-82.432c13.824-13.824 35.84-13.824 49.152 0 13.824 13.824 13.824 35.84 0 49.152l-81.92 82.432z m-238.592 22.016c-47.104 46.592-47.104 121.856-0.512 168.96s121.856 47.104 168.96 0.512 47.104-121.856 0.512-168.96c-22.528-22.528-53.248-35.328-85.504-35.328-31.232 0-61.44 12.8-83.456 34.816z"  horiz-adv-x="1024" />
      
      <glyph glyph-name="peifangguanli2" unicode="&#59354;" d="M537.088-12.8H151.552c-15.36 0-28.16 12.8-28.16 28.672V785.92c0 15.36 12.8 28.16 28.672 28.16h430.08v-145.408c0-58.368 47.104-105.472 105.472-105.472h145.408v-246.272c0-20.992 17.408-38.4 38.4-38.4h0.512c20.992 0 38.4 17.408 38.4 38.912V624.64c0 19.456-7.68 37.376-20.992 50.688L693.76 870.4c-9.216 8.704-21.504 13.312-34.304 13.312h-16.896L152.064 890.88C93.696 890.88 46.592 843.776 46.592 785.408V15.36c0-58.368 47.104-105.472 105.472-105.472H537.6c20.992 0 38.4 17.408 38.4 38.912 0 10.24-4.096 19.968-11.264 27.136-7.68 7.168-17.408 11.264-27.648 11.264z m121.856 680.96V795.648l156.16-156.16h-128c-15.36 0.512-28.16 13.312-28.16 28.672zM284.672 361.984h336.896c20.48 0 37.376 16.896 37.376 37.376v2.048c0 20.48-16.896 37.376-37.376 37.376H285.184c-10.24 0-19.456-4.096-26.624-10.752-7.168-7.168-10.752-16.384-10.752-26.624v-2.048c-0.512-20.48 16.384-37.376 36.864-37.376zM977.408 143.36c-0.512 13.824-7.68 26.112-19.968 32.768l-142.336 79.36h-0.512c-12.288 6.144-26.624 5.632-38.4-1.024l-140.288-78.848-1.024-0.512c-11.776-6.656-18.944-19.456-19.456-32.768v-146.432c0.512-13.312 7.68-25.6 19.456-32.768l140.8-81.408 1.536-0.512c6.144-3.072 12.288-4.608 18.432-4.608 6.656 0 13.824 1.536 19.968 5.12l139.776 80.384h1.024l1.024 0.512c11.776 7.168 18.432 18.944 18.944 32.768l1.024 147.968z m-76.8-24.576v-99.84L796.672-40.96l-103.936 59.904v99.84l103.936 57.856 103.936-57.856zM284.672 562.688h169.472c20.48 0 37.376 16.896 37.376 37.376v2.048c0 20.48-16.896 37.376-37.376 37.376H284.672c-20.48 0-37.376-16.896-37.376-37.376v-2.048c0-20.48 16.896-37.376 37.376-37.376z"  horiz-adv-x="1024" />
      
      <glyph glyph-name="xitongpeizhi" unicode="&#59355;" d="M512.512-122.368H396.288c-39.424-1.024-72.192 30.208-72.704 69.632v86.016c-6.656 3.072-12.8 6.656-18.944 10.24l-73.216-45.568c-34.304-17.92-76.288-6.144-96.768 26.624l-1.536 2.56-115.2 201.216c-12.288 18.432-15.872 41.472-8.704 62.464 6.656 18.432 20.48 32.768 38.4 40.448l68.608 42.496v20.48L47.104 437.248c-17.92 7.68-31.744 22.016-38.4 40.448-6.656 20.992-3.072 44.544 9.216 62.976l114.688 200.704c8.704 16.384 24.064 28.16 41.472 32.768 21.504 5.632 44.032 1.024 61.952-11.264l67.072-41.984c6.144 4.096 13.312 8.192 20.48 11.776V818.176C322.56 857.6 353.792 889.856 393.216 890.88h233.984c39.424 1.024 72.192-30.208 72.704-69.632v-86.016c6.656-3.584 12.8-6.656 18.944-10.24l73.216 45.568c34.304 17.92 76.288 6.144 96.768-26.624l1.536-2.56 115.2-201.216c12.288-18.432 15.872-41.472 8.704-62.464-6.656-18.432-20.48-32.768-38.4-40.448l-68.608-42.496v-10.752c1.024-24.576-17.92-45.056-42.496-45.568-24.576-1.024-45.056 17.92-45.568 42.496V443.392l102.4 64.512-101.376 177.664-102.4-64-23.552 15.872c-18.944 11.776-38.4 22.528-58.88 31.744l-24.064 12.288V802.816h-199.68v-134.656l-33.28-8.192c-14.848-5.632-29.184-13.312-41.984-23.552l-31.744-20.992L199.68 680.96 100.864 507.904l102.4-64.512v-118.272l-102.4-64.512 101.376-177.664 102.4 64 23.552-15.872c18.944-11.776 38.4-22.528 58.88-31.744l24.064-12.288v-121.856H512c24.576 0 44.032-19.968 44.032-44.032 0-23.552-19.968-43.52-43.52-43.52z m0 594.944c48.64 0 88.064-39.424 88.064-88.064s-39.424-88.064-88.064-88.064-88.064 39.424-88.064 88.064 38.912 88.064 88.064 88.064m0 88.064c-97.28 0-176.128-78.848-176.128-176.128s78.848-176.128 176.128-176.128 176.128 78.848 176.128 176.128-78.848 176.128-176.128 176.128c-0.512 0-0.512 0 0 0z m197.632-595.456h264.192c24.576-1.024 43.52-21.504 42.496-45.568-1.024-23.04-19.456-41.472-42.496-42.496h-264.192c-24.576-1.024-45.056 17.92-45.568 42.496-1.024 24.576 17.92 45.056 42.496 45.568h3.072z m0 154.112h264.192c24.576-1.024 43.52-21.504 42.496-45.568-1.024-23.04-19.456-41.472-42.496-42.496h-264.192c-24.576 1.024-43.52 21.504-42.496 45.568 1.024 23.04 19.456 41.472 42.496 42.496z m0 154.112h264.192c24.576-1.024 43.52-21.504 42.496-45.568-1.024-23.04-19.456-41.472-42.496-42.496h-264.192c-24.576-1.024-45.056 17.92-45.568 42.496-1.024 24.576 17.92 45.056 42.496 45.568h3.072z"  horiz-adv-x="1024" />
      
      <glyph glyph-name="zhuisubaobiao1" unicode="&#59356;" d="M134.144 12.288c-26.624 0-48.128 21.504-48.128 48.128v532.48H921.6v-186.88c24.576-15.872 47.104-35.328 66.048-57.856V626.176c0 5.12-1.024 10.24-3.584 14.336l-94.208 193.024C872.96 868.352 837.632 890.88 798.72 890.88H208.384c-38.912 0-74.24-22.528-91.648-57.344L22.528 640.512c-2.048-4.608-3.584-9.728-3.584-14.336v-565.248c0-63.488 51.2-114.688 114.688-114.688H486.4c-14.848 20.48-27.648 43.008-37.376 66.048H134.144z m41.984 792.064c6.144 12.288 18.432 19.968 31.744 19.968h590.336c13.312 0 25.6-7.68 31.744-19.968L901.12 658.944H105.472l70.656 145.408z m569.344-408.064c-143.36 0-259.584-116.224-259.584-259.584s116.224-259.584 259.584-259.584c143.36 0 259.584 116.224 259.584 259.584-0.512 143.36-116.736 259.072-259.584 259.584z m0-452.608c-107.008 0-193.536 86.528-193.536 193.536s86.528 193.536 193.536 193.536 193.536-86.528 193.536-193.536c-0.512-107.008-87.04-193.536-193.536-193.536z m133.632 182.272c0-18.432-14.848-33.28-33.28-33.28h-106.496c-18.432 0-33.28 14.848-33.28 33.28V250.88c0.512 18.432 16.384 32.768 34.304 31.744 17.408-0.512 31.232-14.336 31.744-31.744v-91.648h73.728c18.432 0 33.28-14.848 33.28-33.28zM163.84 416.768v66.56h193.024v-66.048l-193.024-0.512z"  horiz-adv-x="1024" />
      
      <glyph glyph-name="tiaomaguanli" unicode="&#59357;" d="M204.288 518.144h29.184v-268.288h-29.184V518.144z m73.216 0H307.2v-268.288h-29.184V518.144z m73.216 0h29.184v-268.288h-29.184V518.144z m73.728 0h29.184v-268.288h-29.184V518.144z m73.216 0h29.184v-268.288h-29.184V518.144z m73.216 0h29.184v-268.288h-29.184V518.144z m73.216 0h29.184v-268.288h-29.184V518.144z m72.704 0h29.184v-268.288H716.8V518.144z m73.216 0h29.184v-268.288h-29.184V518.144z m196.096-371.2c-17.92 0-32.256-14.336-32.256-32.256v-128.512c0-24.064-19.456-44.032-44.032-44.032h-128.512c-17.92 0-32.256-14.336-32.256-32.256s14.336-32.256 32.256-32.256h128.512c59.904 0 108.544 48.64 109.056 109.056v129.024c0 16.896-14.848 31.232-32.768 31.232zM910.336 890.88h-129.024c-17.92 0-32.256-14.336-32.256-32.256s14.336-32.256 32.256-32.256h128.512c24.064 0 44.032-19.456 44.032-44.032v-128.512c0-17.92 14.336-32.256 32.256-32.256s32.256 14.336 32.256 32.256v128c0 60.416-48.128 109.056-108.032 109.056zM242.688 890.88H114.176C54.272 890.88 5.632 842.24 5.12 781.824v-128.512c0-17.92 14.336-32.256 32.256-32.256s32.256 14.336 32.256 32.256V781.824c0 24.064 19.456 44.032 44.032 44.032h128.512c17.92 0 32.256 14.336 32.256 32.256 1.024 18.432-13.824 32.768-31.744 32.768z m0-948.736H114.176c-24.064 0-44.032 19.456-44.032 44.032v128.512c0 17.92-14.336 32.256-32.256 32.256s-32.256-14.336-32.256-32.256v-128.512c0-59.904 48.64-108.544 109.056-109.056h128.512c17.92 0 32.256 14.336 32.256 32.256 0 18.432-14.848 32.768-32.768 32.768z"  horiz-adv-x="1024" />
      
      <glyph glyph-name="biaoqianguanli" unicode="&#59358;" d="M983.04 690.176h-154.112v138.24c0 19.968-15.872 35.84-35.84 35.84H231.424c-19.968 0-35.84-15.872-35.84-35.84v-138.24H40.96c-19.968 0-35.84-15.872-35.84-35.84v-508.928c0-19.968 15.872-35.84 35.84-35.84h154.112v-169.472c0-19.968 15.872-35.84 35.84-35.84h561.664c19.968 0 35.84 15.872 35.84 35.84v169.472H983.04c19.968 0 35.84 15.872 35.84 35.84V653.824c0 19.968-15.872 36.352-35.84 36.352z m-715.776 102.4h489.472v-102.4H267.264v102.4z m489.472-817.152H267.264v264.704h489.472v-264.704z m190.464 205.312h-118.784v95.232c0 19.968-15.872 35.84-35.84 35.84H230.912c-19.968 0-35.84-15.872-35.84-35.84v-95.232H76.8V617.984h144.384c3.584-1.024 7.68-1.536 11.776-1.536 3.072 0 5.632 0.512 8.704 1.536H947.2v-437.248zM358.912 536.064h-128c-18.432-1.024-33.792-15.872-34.304-34.304-1.024-19.968 14.336-36.352 34.304-37.376h130.56c19.968 1.024 35.328 17.408 34.304 37.376 0 19.968-16.896 35.328-36.864 34.304z"  horiz-adv-x="1024" />
      
      <glyph glyph-name="chanpinguanli" unicode="&#59359;" d="M846.848 251.904l80.384-138.752-80.384-138.752H686.08l-79.872 138.24 80.384 138.752h160.256m46.08 79.872h-252.416L514.048 112.64l125.952-218.624h252.416L1018.88 112.64l-125.952 218.624zM681.472 112.64c0-44.032 35.328-79.36 79.36-79.36s79.36 35.328 79.36 79.36-35.328 79.36-79.36 79.36c-43.52 0-79.36-35.328-79.36-79.36zM362.496 794.112v-278.016H84.48V794.112h278.016M441.856 873.472H5.12v-436.736h436.736V873.472zM362.496 251.904v-278.016H84.48v278.016h278.016m79.36 79.36H5.12v-436.736h436.736v436.736zM905.728 794.112v-278.016h-278.016V794.112h278.016m79.36 79.36h-436.736v-436.736h436.736V873.472z"  horiz-adv-x="1024" />
      
      <glyph glyph-name="jingtaiwenben" unicode="&#59353;" d="M220.35968 675.74784h583.168v-180.736h-25.6s-49.152 110.592-107.52 120.32c-32.768 6.144-65.536 7.168-98.816 3.072l-0.512-460.8s16.384-31.744 43.008-33.28h58.88v-31.744h-322.56l1.024 33.28 51.712 0.512s38.912 10.752 38.912 36.864 1.024 451.584 1.024 451.584c-32.256 4.608-65.024 5.12-97.792 1.024-52.224-17.408-90.624-62.464-99.84-117.248l-26.112-2.048 1.024 179.2zM848.58368 885.66784h-749.568c-48.64 0-88.576-39.424-88.576-88.576v-750.08c0-91.136 73.728-164.864 164.864-164.864h749.568c48.64 0 88.576 39.936 88.576 88.576v750.08c0 91.136-73.728 164.864-164.864 164.864z m73.216-164.864v-747.008h-746.496c-39.936 0.512-72.704 32.768-73.216 72.704v747.52h745.984c40.448-0.512 73.216-32.768 73.728-73.216z"  horiz-adv-x="1024" />
      
      <glyph glyph-name="neizhisuofang1" unicode="&#59352;" d="M511.488 343.552c12.8 0 24.576 5.12 33.792 13.824 9.216 9.216 13.824 20.992 13.824 33.792V523.264c0 26.112-21.504 47.616-47.616 47.616-12.8 0-24.576-5.12-33.792-13.824-9.216-9.216-13.824-20.992-13.824-33.792v-132.096c0-12.8 5.12-24.576 13.824-33.792 9.216-9.216 20.992-13.824 33.792-13.824zM662.016 746.496H552.96v13.824c0 41.984-23.04 80.896-59.904 101.888L459.776 880.64C440.32 891.392 415.232 884.736 404.48 864.768c-10.752-19.456-4.096-44.544 15.872-55.296l33.28-18.432c11.264-6.144 17.92-17.92 17.92-30.72v-13.824H361.472c-114.688 0-208.384-93.696-208.384-208.384v-308.736c0.512-190.976 156.16-346.624 346.624-346.624h24.064c190.976 0.512 346.624 156.16 346.624 346.624V538.112c0 114.688-93.696 208.384-208.384 208.384zM233.984 538.112c0 69.632 57.344 126.464 126.976 126.976h300.032c69.632 0 126.464-57.344 126.976-126.976v-309.76l0.512-3.584c-2.048-144.384-120.32-261.632-265.216-261.632h-24.064c-145.92 0-264.704 119.296-264.704 265.216V538.112z"  horiz-adv-x="1024" />
      
      <glyph glyph-name="kuangxuansuofang" unicode="&#59351;" d="M322.048-27.648c5.632 0 10.752-4.608 10.752-10.752v-73.728c0-5.632-4.608-10.752-10.752-10.752H247.808c-5.632 0-10.752 4.608-10.752 10.752v73.728c0 5.632 4.608 10.752 10.752 10.752h74.24z m-232.448 0c5.632 0 10.752-4.608 10.752-10.752v-73.728c0-5.632-4.608-10.752-10.752-10.752H15.872c-5.632 0-10.752 4.608-10.752 10.752v73.728c0 5.632 4.608 10.752 10.752 10.752h73.728z m370.176 467.456l530.944-197.632-194.048-75.264 220.16-220.16c2.56-2.56 3.072-6.656 1.024-10.24l-2.56-3.584-52.736-52.224c-2.56-3.072-6.656-4.096-10.752-3.072l-3.072 2.048-228.864 229.376-99.84-212.48L459.776 439.808z m-370.176-238.08c5.632 0 10.752-4.608 10.752-10.752v-73.728c0-5.632-4.608-10.752-10.752-10.752H15.872c-5.632 0-10.752 4.608-10.752 10.752v73.728c0 5.632 4.608 10.752 10.752 10.752h73.728z m0 229.888c5.632 0 10.752-4.608 10.752-10.752v-73.728c0-5.632-4.608-10.752-10.752-10.752H15.872c-5.632 0-10.752 4.608-10.752 10.752V420.864c0 5.632 4.608 10.752 10.752 10.752h73.728z m918.528 229.376c5.632 0 10.752-4.608 10.752-10.752v-73.728c0-5.632-4.608-10.752-10.752-10.752h-73.728c-5.632 0-10.752 4.608-10.752 10.752V650.752c0 5.632 4.608 10.752 10.752 10.752h73.728z m-918.528 0c5.632 0 10.752-4.608 10.752-10.752v-73.728c0-5.632-4.608-10.752-10.752-10.752H15.872c-5.632 0-10.752 4.608-10.752 10.24V650.752c0 5.632 4.608 10.752 10.752 10.752l73.728-0.512zM319.488 890.88c5.632 0 10.752-4.608 10.752-10.752v-73.728c0-5.632-4.608-10.752-10.752-10.752H245.248c-5.632 0-10.752 4.608-10.752 10.752V880.128c0 5.632 4.608 10.752 10.752 10.752h74.24z m688.64 0c5.632 0 10.752-4.608 10.752-10.752v-73.728c0-5.632-4.608-10.752-10.752-10.752h-73.728c-5.632 0-10.752 4.608-10.752 10.752V880.128c0 5.632 4.608 10.752 10.752 10.752h73.728zM89.6 890.88c5.632 0 10.752-4.608 10.752-10.752v-73.728c0-5.632-4.608-10.752-10.752-10.752H15.872C10.24 795.648 5.12 800.256 5.12 806.4V880.128C5.12 886.272 9.728 890.88 15.872 890.88h73.728z m459.264 0c5.632 0 10.752-4.608 10.752-10.752v-73.728c0-5.632-4.608-10.752-10.752-10.752H475.136c-5.632 0-10.752 4.608-10.752 10.752V880.128c0 5.632 4.608 10.752 10.752 10.752h73.728z m229.888 0c5.632 0 10.752-4.608 10.752-10.752v-73.728c0-5.632-4.608-10.752-10.752-10.752h-73.728c-5.632 0-10.752 4.608-10.752 10.752V880.128c0 5.632 4.608 10.752 10.752 10.752h73.728z"  horiz-adv-x="1024" />
      
      <glyph glyph-name="bianyunjiehe" unicode="&#59350;" d="M1010.176 310.784c0-9.216 1.024-5.632 1.536-3.584l-1.024-5.12c-8.704-49.152-51.2-17.92-55.808-27.648l-28.672 19.968v84.992c3.584 24.576 1.024 49.664-7.68 72.704-12.288 17.408-32.768 15.872-61.952 15.872H675.84V384c1.536-24.576 0-49.664-5.12-73.728-13.312-43.52-48.64-76.8-92.672-87.04-19.456-3.072-39.424-4.096-59.392-3.072H455.168v-181.76c0-29.696-1.536-50.176 15.872-62.464 27.648-8.704 56.32-11.264 84.992-7.68h109.056c35.84 0 53.76-4.096 59.392-34.816 1.024-8.704 0-17.408-3.584-25.6-12.288-29.184-47.104-23.04-87.552-23.04h-143.36c-3.584 0-7.168 1.024-10.752 1.024-7.68 1.536-15.36 3.072-23.04 5.632-32.768 11.776-58.88 36.352-73.728 68.096-5.12 12.288-8.704 25.088-10.752 38.4 0 18.944 0 37.888-0.512 56.832V220.16H205.312c-22.016-1.536-44.032-1.024-66.048 2.048-21.504 5.12-41.472 14.848-58.368 29.184-20.992 17.92-35.328 42.496-41.472 69.632-3.584 25.6-4.096 51.2-2.56 76.8V460.8c0 9.216-1.024 5.632-1.536 3.584l1.024 5.12c8.704 49.152 51.2 17.92 55.808 27.648l28.672-19.968v-84.992c-3.584-24.576-1.024-49.664 7.68-72.704 12.288-17.408 32.768-15.872 61.952-15.872h180.736V387.584c-1.536 24.576 0 49.664 5.12 73.728 13.312 43.52 48.64 76.8 92.672 87.04 19.456 3.072 39.424 4.096 59.392 3.072h64V733.184c0 29.696 1.536 50.176-15.872 62.464-27.648 8.704-56.32 11.264-84.992 7.68H382.464c-35.84 0-53.76 4.096-59.392 34.816-1.024 8.704 0 17.408 3.584 25.6C338.944 892.928 373.76 886.784 414.208 886.784h143.36c3.584-0.512 7.168-1.024 10.752-1.024 7.68-1.536 15.36-3.072 23.04-5.632 32.768-11.776 58.88-36.352 73.728-68.096 5.12-12.288 8.704-25.088 10.752-38.4 0-18.944 0-37.888 0.512-56.832v-165.376h138.24c31.232 1.536 62.464 1.024 93.696-2.048 21.504-5.12 41.472-14.848 58.368-29.184 20.992-17.92 35.328-42.496 41.472-69.632 3.584-25.6 4.096-51.2 2.56-76.8l-0.512-62.976z m-417.28 64.512V467.968h-71.68c-25.6 0-45.568 0.512-56.832-13.824-9.216-17.92-12.8-38.4-9.216-57.856v-92.672h71.68c25.6 0 45.568 0 56.832 13.824 9.216 17.408 12.288 37.888 9.216 57.856zM77.824 692.224c-38.4 0-69.632 31.232-69.632 69.632s31.232 69.632 69.632 69.632 69.632-31.232 69.632-69.632c0.512-38.4-30.72-69.632-69.632-69.632 0.512 0 0.512 0 0 0zM942.08 51.2c38.4 0 69.632-31.232 69.632-69.632s-31.232-69.632-69.632-69.632-69.632 31.232-69.632 69.632S903.68 51.2 942.08 51.2z"  horiz-adv-x="1024" />
      
      <glyph glyph-name="wenjianjia1" unicode="&#59211;" d="M605.7472 624.2304h357.376c14.336 0 22.016 14.336 22.016 29.184v87.552c0 14.336-7.168 29.184-22.016 29.184h-422.912c-13.824-1.536-24.064-13.824-22.528-27.648 0.512-6.144 3.584-11.776 7.68-15.872l65.536-94.72c0.512-7.68 7.68-7.68 14.848-7.68zM952.8832 573.5424h-371.712c-19.456-0.512-36.864 11.264-43.52 29.184l-145.92 189.44c-12.8 14.336-31.744 22.528-51.2 22.016h-269.824c-37.376-3.072-66.048-35.328-65.536-72.704v-714.24c-3.072-36.864 24.064-69.632 61.44-72.704H952.8832c37.376 3.072 66.048 35.328 65.536 72.704v473.6c3.072 36.864-24.576 69.632-61.44 72.704h-4.096z"  horiz-adv-x="1024" />
      
      <glyph glyph-name="gongxuguanli" unicode="&#59349;" d="M868.352 157.184c26.112 0 47.616-21.504 47.616-47.616v-184.832c0-26.112-21.504-47.616-47.616-47.616H393.216c-26.112 0-47.616 21.504-47.616 47.616v184.832c0 26.112 21.504 47.616 47.616 47.616h475.136zM952.832 798.72h1.024c26.112-0.512 46.592-21.504 46.592-47.616v-367.616c-0.512-26.112-21.504-46.592-47.616-46.592H675.84l-133.632-108.544c-17.408-14.336-42.496-14.336-59.904 0L348.16 336.384H118.784v-271.872h140.8c26.112-1.024 46.592-23.04 45.568-49.664-1.024-25.088-21.504-45.056-46.08-45.568H70.144c-26.112 0.512-46.592 21.504-46.592 47.616V385.024c0.512 26.112 21.504 46.592 47.616 46.592h278.016l133.12 108.032c17.408 14.336 42.496 14.336 59.904 0l133.12-108.032h230.4V703.488h-140.8c-26.112 1.024-46.592 23.04-45.568 49.664 1.024 25.088 21.504 45.056 46.08 45.568h187.392z m-132.096-736.768H440.832v-89.6h379.904v89.6zM512 441.344l-71.168-57.856 71.168-57.856 71.168 57.856L512 441.344zM630.784 890.88c26.112 0 47.616-21.504 47.616-47.616v-184.832c0-26.112-21.504-47.616-47.616-47.616H155.648c-26.112 0-47.616 21.504-47.616 47.616V843.264c0 26.112 21.504 47.616 47.616 47.616h475.136z m-47.616-95.232H203.264v-89.6h379.904V795.648z"  horiz-adv-x="1024" />
      
      <glyph glyph-name="zhuisubaobiao" unicode="&#59348;" d="M134.144 12.288c-26.624 0-48.128 21.504-48.128 48.128v532.48H921.6v-186.88c24.576-15.872 47.104-35.328 66.56-57.856V626.176c0 5.12-1.024 10.24-3.072 14.336L890.88 833.536C872.96 868.864 837.632 890.88 798.72 890.88H208.384c-38.912 0-74.24-22.528-91.648-57.344L22.528 640.512c-2.048-4.608-3.584-9.728-3.072-14.336v-565.248c0-63.488 51.2-114.688 114.688-114.688H486.4c-15.36 20.48-27.648 42.496-37.376 66.048H134.144z m41.984 792.064c6.144 12.288 18.432 19.968 32.256 19.968h589.824c13.824 0 26.112-7.68 32.256-19.968L901.12 658.944H105.472l70.656 145.408z m568.832-408.064c-143.36 0-259.584-116.224-259.072-259.584s116.224-259.584 259.584-259.072c143.36 0 259.584 116.224 259.072 259.584 0 142.848-116.224 259.072-259.584 259.072z m0-452.608c-106.496 0-193.024 86.528-193.024 193.024s86.528 193.024 193.024 193.024 193.024-86.528 193.024-193.024c0-106.496-86.528-192.512-193.024-193.024z m133.632 182.272c0-18.432-14.848-33.28-32.768-33.28h-106.496c-18.432 0-33.28 14.848-33.28 32.768V250.88c0 18.432 14.848 33.28 33.28 33.28s33.28-14.848 33.28-33.28v-91.648h73.728c17.408 0 32.256-14.336 32.256-33.28 0 0.512 0 0.512 0 0zM163.84 416.768V482.816h193.024v-66.048H163.84z"  horiz-adv-x="1024" />
      
      <glyph glyph-name="lixianzhuangtai" unicode="&#59347;" d="M509.952 892.928c280.064 0 506.88-226.816 506.88-506.88s-226.816-506.88-506.88-506.88-506.88 226.816-506.88 506.88S230.4 892.928 509.952 892.928zM80.384 386.048c0-237.568 192.512-430.08 430.08-430.08 95.232 0 187.392 31.744 262.656 89.6L169.984 648.704C111.616 573.44 80.384 480.768 80.384 386.048zM509.952 815.616c-95.744 0-188.928-31.744-264.192-91.136l603.648-603.648c145.92 187.392 112.64 457.216-74.752 603.648-75.264 59.392-168.448 91.136-264.704 91.136zM233.64096 422.93248h131.584v-316.416h-131.584zM444.58496 581.14048h131.584v-474.112h-131.584zM655.01696 665.10848h131.584v-558.08h-131.584z"  horiz-adv-x="1024" />
      
      <glyph glyph-name="fuzhi2" unicode="&#59342;" d="M579.584 608.256l100.352-100.352v-549.888h-537.6v650.24h437.248m33.28 80.384H129.536c-37.888 0-68.608-30.72-68.608-68.608v-674.816c0-17.92 7.168-35.84 19.968-48.64s30.208-19.968 48.64-19.968h562.688c37.888 0 68.096 30.72 68.096 68.608V541.184l-147.456 147.456zM815.616 890.88H332.288c-37.888 0-68.608-30.72-68.608-68.608v-115.2h80.896V809.984h437.76l100.352-100.352v-549.888h-98.816v-80.896h111.616c37.888 0 68.096 30.72 68.096 68.608V743.424L815.616 890.88z"  horiz-adv-x="1024" />
      
      <glyph glyph-name="xianshi1" unicode="&#59343;" d="M1014.17472 405.504c-42.496 55.296-91.136 106.496-144.384 151.552-97.28 92.16-224.256 146.944-357.888 154.624-276.48 0-493.568-293.376-502.784-306.176-9.216-12.8-9.216-30.208 0-42.496 42.496-55.808 91.136-106.496 144.384-152.064 97.28-92.16 224.256-146.944 358.4-154.112 276.48 0 493.568 293.376 502.272 306.176 9.728 12.288 9.728 29.696 0 42.496z m-502.272-275.968c-199.68 0-373.248 189.952-426.496 254.464 53.248 65.024 226.816 254.464 426.496 254.464s372.736-189.952 426.496-254.464c-53.76-65.024-226.816-254.464-426.496-254.464zM511.90272 558.592c-96.256-8.704-167.936-93.696-159.232-190.464 8.704-96.256 93.696-167.936 190.464-159.232 90.624 8.192 159.744 83.968 159.744 174.592-4.096 101.376-89.6 179.712-190.976 175.104z m0-279.552c-57.856 5.12-100.864 56.32-95.232 114.176 5.12 57.856 56.32 100.864 114.176 95.232 54.272-4.608 95.744-50.176 95.744-104.96-2.56-59.904-53.76-107.008-114.688-104.448z"  horiz-adv-x="1024" />
      
      <glyph glyph-name="piliangxiugai" unicode="&#59344;" d="M983.71072 823.50592c-22.528 23.04-53.76 35.84-86.016 35.84h-663.552c-67.072 0-121.344-54.272-121.344-121.344v-61.44c-60.928-7.168-107.008-59.392-107.008-120.832v-525.312c0-67.072 54.272-121.344 121.344-121.344h525.824c35.84 0 70.144 15.872 93.184 44.032h151.552c67.072 0 121.344 54.272 121.344 121.344v663.04c0 32.256-12.8 63.488-35.328 86.016z m-210.432-759.808v492.032c0 67.072-54.272 121.344-121.344 121.344h-429.056v60.928c0 5.632 4.608 10.24 10.24 10.24h663.552c5.632 0 10.24-4.608 10.24-10.24v-663.552c0-5.632-4.608-10.24-10.24-10.24l-123.392-0.512z m-656.896 491.52c0 5.632 4.608 10.24 10.24 10.24h525.824c5.632 0 10.24-4.608 10.24-10.24v-525.312c0-5.632-4.608-10.24-10.24-10.24h-525.312c-5.632 0-10.24 4.608-10.24 10.24l-0.512 525.312zM588.8 421.376c8.704 8.192 8.704 21.504 0.512 30.208l-0.512 0.512-51.2 51.2c-8.192 8.704-21.504 8.704-30.208 0.512l-0.512-0.512-39.936-39.936 84.48-83.968 37.376 41.984z m-392.704-225.792v-83.968h84.48l244.224 245.76L440.32 441.344l-244.224-245.76z"  horiz-adv-x="1024" />
      
      <glyph glyph-name="buxianshi" unicode="&#59345;" d="M869.376 596.992c-18.432 15.36-37.376 29.184-57.344 42.496l142.336 146.944c14.336 14.848 14.336 38.4 0 53.248-13.824 14.336-36.352 14.848-50.688 1.024l-1.024-1.024-156.672-161.28c-11.776 6.144-23.552 11.776-35.84 16.896a477.94176 477.94176 0 0 1-396.288 0c-57.344-25.088-111.104-58.368-159.232-98.816-40.448-32.768-76.288-70.656-107.52-112.128-55.296-49.664-59.904-135.168-9.728-189.952 3.072-3.584 6.656-6.656 9.728-9.728 31.232-41.984 67.072-79.36 107.52-112.128 18.432-15.36 37.888-29.696 57.856-43.008l-142.848-146.944c-14.336-14.848-14.336-38.4 0-53.248 13.824-14.336 36.352-14.848 50.688-1.024l1.024 1.024 156.672 161.792c11.776-6.144 23.552-11.776 35.328-16.896 125.952-57.344 270.336-57.344 396.288-0.512 57.344 25.088 111.104 57.856 159.232 97.792 73.216 60.416 152.064 152.576 152.064 213.504s-78.336 151.552-151.552 211.968z m-665.6-369.152c-35.328 28.672-67.584 61.44-95.744 97.792-14.336 16.896-25.6 36.864-32.256 58.368 6.656 21.504 17.92 40.96 32.256 58.368 27.648 36.352 59.904 69.12 95.744 97.792C290.304 614.4 398.848 657.408 512 662.528c61.952-0.512 122.88-14.848 178.688-40.96L619.52 547.84c-31.232 22.016-69.12 33.792-107.52 33.792C404.48 580.096 318.464 491.52 320 384c0-39.424 11.264-77.824 32.768-110.592l-87.04-90.112c-21.504 13.312-41.984 28.16-61.952 44.544z m427.008 156.16c0-42.496-20.992-81.92-56.832-104.448-35.328-22.016-79.36-24.064-116.224-4.608l159.744 164.864c9.216-17.408 13.824-36.352 13.312-55.808z m-237.568 0c0 42.496 20.992 81.92 56.832 104.448 35.328 22.016 79.36 24.064 116.224 4.608l-159.744-164.864c-8.704 17.408-13.312 36.352-13.312 55.808zM916.48 325.632c-27.648-36.352-59.904-69.12-95.744-97.792-86.528-74.24-195.072-117.248-309.248-122.368-61.44 1.024-122.368 14.848-178.176 40.96L404.48 220.16c31.232-22.016 69.12-33.792 107.52-33.792 107.52 2.048 193.536 90.624 192 198.144 0 39.424-11.264 77.824-32.768 110.592l87.552 90.112c21.504-13.312 42.496-28.672 62.464-44.544 35.84-28.672 67.584-61.44 95.744-97.792 14.336-16.896 25.6-36.864 31.744-58.368-6.656-22.016-17.408-41.984-32.256-58.88z"  horiz-adv-x="1024" />
      
      <glyph glyph-name="jiekouhulian" unicode="&#59346;" d="M95.232-114.176h279.552c24.064 1.024 46.08 10.752 62.464 28.672 16.384 17.408 25.088 40.448 24.064 64v92.672H386.048v-92.672c0-3.072-1.024-6.656-3.584-8.704-2.56-2.56-5.632-3.584-8.704-4.096H93.696c-3.072 0.512-5.632 2.048-7.168 4.096-1.536 2.56-2.56 5.12-2.048 8.192V799.744c0 3.584 1.024 6.656 3.584 9.216 2.56 2.56 5.632 3.584 8.704 4.096H373.76c3.584 0 6.656-1.536 9.216-4.096s3.584-6.144 3.584-9.728V706.56h75.776V800.768C462.848 849.408 423.424 890.368 373.76 890.88H95.744C71.68 889.856 49.152 880.128 32.768 862.72 16.384 844.8 8.192 822.272 8.704 798.208v-821.248c-1.536-46.08 32.768-86.016 78.336-91.648l8.192 0.512zM359.424 536.576c-14.848 13.312-37.376 12.288-50.688-2.56l-1.024-1.024c-13.824-15.872-13.312-38.912 1.024-53.76l36.864-38.912H121.856v-78.336h224.768l-37.888-39.936c-13.824-15.872-13.312-38.912 1.024-54.272l1.024-1.024c6.656-6.656 15.872-10.752 25.088-10.752 10.24 0 19.456 4.096 26.112 11.776l126.464 133.12-128 134.656c-0.512 0.512-0.512 1.024-1.024 1.024zM927.232 890.368h-279.04c-49.152-1.536-88.064-43.52-86.528-92.672v-95.232h75.776V797.184c0.512 7.168 5.632 12.8 12.8 13.824h279.552c3.072-0.512 5.632-2.048 7.168-4.096 1.536-2.56 2.56-5.12 2.048-8.192v-821.248c-0.512-7.168-5.632-12.8-12.8-13.824h-280.064c-6.144 1.024-10.24 6.656-9.216 12.288v93.184h-75.776v-94.208c-0.512-48.64 38.4-89.088 87.04-90.624h280.576c24.064 1.024 46.08 10.752 62.464 28.672 16.384 17.408 25.088 40.448 24.064 64V799.232c1.024 49.152-38.4 90.112-88.064 91.136zM713.728 534.016l-1.024 1.536-1.024 1.024c-14.848 13.312-37.376 12.288-50.688-2.56l-126.464-133.12 128-135.168c6.656-6.656 16.384-10.24 26.112-10.752 9.728 0 19.456 4.096 25.6 11.776l1.024 2.048c13.312 15.36 12.8 38.4-1.536 53.248l-36.864 38.912H901.12V440.832h-224.256l37.888 39.936c13.824 15.36 13.312 38.4-1.024 53.248z"  horiz-adv-x="1024" />
      
      <glyph glyph-name="baojingchufa1" unicode="&#59338;" d="M576.512-46.592c19.968 0 35.84-15.872 35.84-35.84v-4.096c0-19.968-15.872-35.84-35.84-35.84H446.976c-19.968 0-35.84 15.872-35.84 35.84v4.096c0 19.968 16.384 35.84 35.84 35.84h129.536zM512 890.88c72.192 2.048 132.096-54.784 134.656-126.464v-23.552c138.752-48.128 232.96-177.664 235.52-324.608v-331.264h62.976c20.992 0 37.888-16.896 37.888-37.888v-4.608c0-20.992-16.896-37.888-37.888-37.888h-865.28c-20.992 0-37.888 16.896-37.888 37.888v4.608c0 20.992 16.896 37.888 37.888 37.888h62.976V415.744c2.56 146.944 96.256 276.48 235.52 324.608v23.552C379.904 836.096 439.808 892.928 512 890.88z m0-209.408c-150.528 2.56-275.456-115.712-281.088-266.24v-330.752h565.248V415.232c-7.68 151.04-133.12 268.8-284.16 266.24z m0 139.264c-30.208 3.584-57.344-18.432-60.928-48.128-0.512-2.56-0.512-5.632-0.512-8.192v-4.608c40.448 6.144 81.92 6.144 122.368 0v4.608c1.024 30.72-23.04 55.808-53.76 56.832-2.048 0-4.608 0-7.168-0.512z"  horiz-adv-x="1024" />
      
      <glyph glyph-name="bianhuachufa" unicode="&#59339;" d="M707.072 540.16V774.144l311.808-312.32H5.12V540.16h701.952z m-390.144-312.32v-233.984L5.12 306.176h1013.76v-77.824l-701.952-0.512z"  horiz-adv-x="1024" />
      
      <glyph glyph-name="dingshichufa1" unicode="&#59340;" d="M512 797.184c-246.784 0-446.464-200.192-446.464-446.464s200.192-446.464 446.464-446.464c246.784 0 446.464 200.192 446.464 446.464 2.56 244.224-193.536 443.904-437.76 446.464H512z m0-803.84c-197.12 0-357.376 159.744-357.376 357.376S314.88 707.584 512 707.584s357.376-159.744 357.376-357.376c-0.512-196.608-160.256-356.352-357.376-356.864z m44.544 374.784V618.496c0 24.576-19.968 44.544-44.544 44.544-24.576 0-44.544-19.968-44.544-44.544v-267.776c0-8.704 8.704-26.624 8.704-35.84l142.848-142.848c8.704-8.704 17.92-8.704 35.84-8.704s26.624 0 35.84 8.704c17.408 16.384 17.92 44.032 1.536 60.928l-1.536 1.536-134.144 133.632zM306.688 797.184c0 8.704-8.704 17.92-8.704 26.624-57.856 44.544-138.752 44.544-196.608 0L38.4 761.344c-44.544-57.856-44.544-138.752 0-196.608 8.704 0 17.92-8.704 26.624-8.704 46.592 108.544 133.12 195.072 241.664 241.152z m678.912-35.84l-62.464 62.464c-49.152 51.712-131.584 53.76-183.296 4.608l-4.608-4.608c-8.704-8.704-8.704-17.92-17.92-26.624 107.008-48.64 192.512-134.656 241.152-241.152 8.704 8.704 17.92 8.704 26.624 17.92 45.056 54.272 45.056 132.608 0.512 187.392z"  horiz-adv-x="1024" />
      
      <glyph glyph-name="ziduanchufa1" unicode="&#59341;" d="M849.92-122.88H174.08c-93.184 0-168.96 75.776-168.96 168.96V721.92C5.12 815.104 80.896 890.88 174.08 890.88h675.84c93.184 0 168.96-75.776 168.96-168.96v-675.84c0-93.184-75.776-168.96-168.96-168.96zM174.08 806.4c-46.592 0-84.48-37.888-84.48-84.48v-675.84c0-46.592 37.888-84.48 84.48-84.48h675.84c46.592 0 84.48 37.888 84.48 84.48V721.92c0 46.592-37.888 84.48-84.48 84.48H174.08zM339.51232 196.7104l-156.672 159.744c-11.264 10.752-11.264 28.672 0 39.936l156.672 168.448c9.728 10.752 26.624 11.776 37.888 1.536l1.536-1.536 19.456-19.968c11.264-10.752 11.264-28.672 0-39.936l-115.2-122.368c-2.56-2.048-2.56-5.632-0.512-8.192l0.512-0.512 111.616-114.176c11.264-10.752 11.264-28.672 0-39.936l-19.456-19.968c-5.632-10.752-18.944-14.336-29.696-8.704-2.56 1.536-5.12 3.584-6.144 5.632z m296.448 0l-19.456 19.968c-11.264 10.752-11.264 28.672 0 39.936l111.616 114.176c2.56 2.048 2.56 5.632 0.512 8.192l-0.512 0.512-114.688 122.88c-11.264 10.752-11.264 28.672 0 39.936l19.456 19.968c9.728 10.752 26.624 11.776 37.888 1.536l1.536-1.536 156.672-168.448c11.264-10.752 11.264-28.672 0-39.936l-156.672-159.744c-6.144-8.704-25.6-8.704-36.352 2.56z m-162.304-48.128l-28.16 5.632c-14.336 3.584-23.552 18.432-19.968 32.768 0 0.512 0 1.024 0.512 1.536l95.232 399.36c3.072 14.336 16.896 23.552 31.232 20.48 1.024 0 1.536-0.512 2.56-0.512l28.16-5.632c14.336-3.584 23.552-18.432 19.968-32.768 0-0.512 0-1.024-0.512-1.536l-95.232-399.36c-4.096-14.848-19.456-23.552-33.792-19.968z"  horiz-adv-x="1024" />
      
      <glyph glyph-name="zhengchang" unicode="&#59336;" d="M10.24 384c0-276.992 224.768-501.76 501.76-501.76s501.76 224.768 501.76 501.76-224.768 501.76-501.76 501.76S10.24 660.992 10.24 384zM807.936 522.24c0 11.264-4.096 21.504-12.288 29.184-15.872 15.872-43.008 15.872-58.88 0l-288.256-287.744-129.024 129.536c-7.68 7.68-18.432 12.288-29.184 12.288-11.264 0-21.504-4.608-29.184-12.288s-12.288-18.432-12.288-29.696c0-11.264 4.096-21.504 12.288-29.184l158.72-158.72s0.512 0 0.512-0.512c4.096-4.096 9.216-6.656 14.848-8.704 0.512 0 1.024-0.512 1.536-1.024v-2.048h12.288c5.632 0 10.752 1.024 15.872 3.072 0.512 0 0.512 0.512 1.024 0.512 4.608 2.048 8.704 4.608 12.288 8.192v0.512l316.928 316.928c8.192 8.192 12.8 18.432 12.8 29.696z"  horiz-adv-x="1024" />
      
      <glyph glyph-name="jinyong" unicode="&#59247;" d="M5.12 384c0-280.064 226.816-506.88 506.88-506.88s506.88 226.816 506.88 506.88v0.512c0 280.064-226.816 506.88-506.88 506.88S5.12 664.064 5.12 384zM82.432 384c0-237.568 192.512-430.08 430.08-430.08 95.232 0 187.392 31.744 262.656 89.6L172.032 647.168C113.664 571.904 81.92 479.232 82.432 384zM512 814.08c-95.744 0-188.928-31.744-264.192-91.136l603.648-603.648c145.92 187.392 112.64 457.728-74.752 603.648C700.928 782.336 608.256 814.08 512 814.08z"  horiz-adv-x="1024" />
      
      <glyph glyph-name="yichang" unicode="&#59245;" d="M491.008 804.864c6.656 11.776 21.504 15.36 33.28 8.704 3.584-2.048 6.656-5.12 8.704-8.704l482.816-816.64c6.656-11.264 3.072-26.624-8.704-33.28-3.584-2.048-8.192-3.584-12.288-3.584H29.184c-13.312 0-24.064 10.752-24.064 24.064 0 4.096 1.024 8.704 3.584 12.288L491.008 804.864zM471.552 584.192c0 24.576 18.432 44.544 43.008 46.592 23.552 0 42.496-19.456 42.496-43.008v-346.624c0-23.552-18.944-43.008-42.496-43.008-23.552 0-43.008 18.944-43.008 42.496V584.192z m27.136-452.608c17.408 7.68 37.376 7.68 54.784 0 16.896-9.728 27.136-27.648 27.136-46.592-1.024-18.944-11.264-36.352-27.136-46.592-17.408-7.68-37.376-7.68-54.784 0-16.896 9.728-27.136 27.136-27.136 46.592 1.024 18.944 11.264 36.864 27.136 46.592z"  horiz-adv-x="1024" />
      
      <glyph glyph-name="mubiaotongbuzhisuoyou" unicode="&#59337;" d="M987.5968 181.9136c14.848-1.536 25.6-14.336 24.576-29.184v-49.664c0-14.336-10.24-27.136-24.576-29.184h-43.008c-5.12-13.824-10.752-27.648-17.92-40.448l31.232-29.184c9.216-10.24 9.216-25.6 0-35.84l-35.84-35.84c-9.216-9.216-24.064-9.216-33.792 0l-29.184 31.232c-13.312-6.656-31.232-13.312-40.448-17.92v-38.4c-1.536-14.848-14.336-25.6-29.184-24.576h-49.664c-14.336 0-27.136 10.24-29.184 24.576v43.008c-13.824 5.12-27.648 10.752-40.448 17.92l-29.184-31.232c-10.24-9.216-25.6-9.216-35.84 0l-35.84 35.84c-9.216 9.216-9.216 24.064 0 33.792l31.232 29.184c-6.656 13.312-13.312 31.232-17.92 40.448h-42.496c-14.848 1.536-25.6 14.336-24.576 29.184v49.664c0 14.336 10.24 27.136 24.576 29.184h43.008c5.12 13.824 10.752 27.648 17.92 40.448l-31.232 29.184c-9.216 10.24-9.216 25.6 0 35.84l33.792 35.84c9.216 9.216 24.064 9.216 33.792 0l29.184-31.232c13.312 6.656 31.232 13.312 40.448 17.92v42.496c1.536 14.848 14.336 25.6 29.184 24.576h49.664c14.336 0 27.136-10.24 29.184-24.576v-43.008c13.824-5.12 27.648-10.752 40.448-17.92l29.184 31.232c10.24 9.216 25.6 9.216 35.84 0l35.84-33.792c9.216-9.216 9.216-24.064 0-33.792l-29.184-35.84c6.656-13.312 13.312-31.232 17.92-40.448l42.496 0.512z m-223.232-164.352c61.952 0 112.64 50.176 112.64 112.64s-50.176 112.64-112.64 112.64c-61.952 0-112.64-50.176-112.64-112.64 0.512-61.952 50.688-112.64 112.64-112.64zM107.9808-21.8624c-0.512-26.112-22.016-47.616-48.128-48.128-26.112-0.512-47.616 20.48-48.128 46.08V836.7616c0 26.624 21.504 48.128 48.128 48.128s48.128-21.504 48.128-48.128v-858.624z m218.112 45.056c0.512-39.936-31.232-73.216-71.68-73.728h-12.288c-40.96 0-73.728 33.28-73.728 73.728 0 40.96 33.28 73.728 73.728 73.728h9.728c40.96-0.512 73.728-33.28 74.24-73.728z m112.64 249.856c0.512-39.936-31.232-73.216-71.68-73.728h-124.416c-40.96 0-73.728 33.28-73.728 73.728 0 40.96 33.28 73.728 73.728 73.728h121.856c40.448-0.512 73.216-33.28 74.24-73.728z m-196.096 176.64c-39.936-0.512-73.216 31.232-73.728 71.168v2.56c1.536 39.936 33.792 72.192 73.728 73.728h382.464c40.96 0 73.728-33.28 73.728-73.728 0-40.96-33.28-73.728-73.728-73.728h-382.464z m0 253.44c-40.96 0-73.728 33.28-73.728 73.728s33.28 73.728 73.728 73.728h645.12c40.96 0 73.728-33.28 73.728-73.728s-33.28-73.728-73.728-73.728h-645.12z"  horiz-adv-x="1024" />
      
      <glyph glyph-name="xzhouweizhiyou" unicode="&#59333;" d="M883.712 326.656H998.4v-286.208h-114.688zM782.848 727.552V40.96H25.6V727.552h757.248z m-61.44-71.168H87.04v-544.768h634.368V656.384z m-440.32-240.64v-222.72h-61.44V416.256l61.44-0.512z m153.6 94.72v-317.44h-61.44V510.976l61.44-0.512z m153.6-70.656v-246.272h-61.44V440.32l61.44-0.512z"  horiz-adv-x="1024" />
      
      <glyph glyph-name="xzhouweizhizhong" unicode="&#59334;" d="M355.328 23.04h313.856V-102.4H355.328zM927.232 870.4v-753.152H96.768V870.4h830.464z m-67.584-77.824H163.84v-597.504h695.808V792.576zM377.344 528.896v-244.224H309.76V529.408l67.584-0.512z m168.448 103.936v-348.16H478.208V633.344l67.584-0.512z m167.936-77.824v-270.336h-67.584V555.008h67.584z"  horiz-adv-x="1024" />
      
      <glyph glyph-name="xzhouweizhizuo" unicode="&#59335;" d="M25.6 327.68h113.152v-282.112H25.6zM998.4 722.944v-677.376H251.392V722.944H998.4z m-60.416-70.144H312.32v-537.088h625.664V652.8zM503.808 415.744v-219.648H443.392v220.16l60.416-0.512zM655.36 508.928v-313.344h-60.416V508.928H655.36z m151.04-70.144v-243.2h-60.416V438.784h60.416z"  horiz-adv-x="1024" />
      
      <glyph glyph-name="zhoubiaoti-mowei" unicode="&#59293;" d="M998.4 841.728v-729.6H25.6V841.728h972.8z m-78.848-75.264H104.448v-578.56h815.104v578.56zM353.792 510.976v-236.544H274.944V511.488l78.848-0.512z m197.632 100.864v-337.408H472.576V611.84h78.848z m197.12-75.776v-261.632h-78.848V536.576l78.848-0.512zM25.6 51.2h304.128v-121.344H25.6z"  horiz-adv-x="1024" />
      
      <glyph glyph-name="yibiaopan" unicode="&#59332;" d="M1008.64 382.976c-27.136 132.608-103.936 246.784-217.088 322.048-81.92 54.272-177.152 83.456-275.456 84.48h-5.12C231.936 788.992 4.608 561.152 5.12 281.6c0-101.376 30.208-199.68 87.552-283.648 7.168-10.752 19.456-16.896 32.256-16.896h1.024c7.68 0 15.36 2.56 22.016 6.656 17.92 12.288 23.04 36.352 10.752 54.784-43.52 64.512-68.608 139.264-72.704 216.576h50.688c23.04 1.536 40.448 22.016 38.912 45.056-1.536 20.992-17.92 37.376-39.424 38.912h-47.104c9.728 70.144 37.376 137.216 79.872 194.048l28.16-28.16c8.192-7.68 19.456-11.264 30.72-10.752 11.264 0.512 21.504 5.632 29.184 13.824 14.336 15.872 14.336 39.936 0 56.32l-30.208 30.72c67.584 61.44 154.112 99.84 244.736 109.056-0.512-2.048-0.512-4.096-0.512-5.632v-58.88c1.024-11.264 6.144-21.504 14.336-28.672 8.704-7.168 19.456-10.752 30.72-10.24 20.992 1.536 37.376 17.92 38.912 39.424V702.464c0 2.048 0 3.584-0.512 5.632 90.112-8.704 176.128-46.592 243.2-107.008l-32.256-32.256c-15.36-17.408-13.824-44.032 3.584-59.392 15.872-14.336 39.936-14.336 56.32 0.512l29.696 29.184c43.008-57.344 71.168-124.416 81.408-195.584h-49.664c-11.264-1.024-21.504-6.144-28.672-14.336a44.6976 44.6976 0 0 1-10.24-30.72c1.536-20.992 17.92-37.376 39.424-38.912h52.736c-4.096-75.776-28.16-149.504-70.144-212.992-5.632-8.704-7.68-19.456-5.632-29.696 2.048-10.24 8.192-19.456 16.896-25.088 17.92-12.288 42.496-7.168 54.784 11.264 73.216 112.128 99.328 247.296 72.704 379.904zM608.768 425.984l-109.056-109.568h-8.704c-33.792 0-61.44-27.648-61.44-61.44s27.648-61.44 61.44-61.44 61.44 27.648 61.44 61.44v7.68l109.056 109.056c13.312 15.36 11.264 38.912-4.608 52.224a36.5056 36.5056 0 0 1-47.616 0l-0.512 2.048z"  horiz-adv-x="1024" />
      
      <glyph glyph-name="jindutiao" unicode="&#59331;" d="M851.968-116.736H172.032C82.432-116.736 10.24-44.544 10.24 45.056c0 89.088 72.192 161.792 161.792 161.792h679.936c89.088 0 161.792-72.192 161.792-161.792s-72.192-161.792-161.792-161.792zM172.032 118.272c-40.448 1.024-74.24-30.72-75.264-71.68-1.024-40.448 30.72-74.24 71.68-75.264H852.48c40.448 1.024 72.704 34.816 71.68 75.264-1.024 38.912-32.256 70.656-71.68 71.68H172.032z m85.504 170.496c-24.576 0-44.032 19.968-44.032 44.032 0 11.776 4.608 23.04 12.8 31.232l508.416 508.416c17.408 16.896 45.568 16.384 62.464-1.536 16.384-16.896 16.384-44.032 0-60.928l-508.416-508.416c-8.192-8.192-19.456-13.312-31.232-12.8z m78.848 322.56C261.12 611.328 200.192 672.256 200.192 747.52 200.192 822.784 261.12 883.712 336.384 883.712c75.264 0 136.192-60.928 136.192-136.192 0-75.264-60.928-136.192-136.192-136.192z m0 183.808c-26.624 0-48.128-21.504-48.128-48.128s21.504-48.128 48.128-48.128 48.128 21.504 48.128 48.128c0 27.136-20.992 48.64-48.128 48.128 0.512 0.512 0 0.512 0 0zM665.6 270.848c-75.264 0-136.192 60.928-136.192 136.192 0 75.264 60.928 136.192 136.192 136.192 75.264 0 136.192-60.928 136.192-136.192 0-74.752-60.928-135.68-136.192-136.192z m0 184.32c-26.624 0-48.128-21.504-48.128-48.128s21.504-48.128 48.128-48.128 48.128 21.504 48.128 48.128-20.992 48.64-48.128 48.128c0.512 0.512 0 0.512 0 0z"  horiz-adv-x="1024" />
      
      <glyph glyph-name="tongdaoqudongdiyiceng" unicode="&#59329;" d="M80.896 871.936h864.768c29.696 0 54.272-24.064 54.272-54.272v-864.768c0-29.696-24.064-54.272-54.272-54.272H80.896c-29.696 0-54.272 24.064-54.272 54.272V817.664c0 30.208 24.064 54.272 54.272 54.272zM883.712 420.352c-6.144 7.68-15.36 11.776-25.088 11.776h-64v31.744c0 52.736-43.008 95.744-95.744 95.744h-199.68l-10.24 31.744C475.648 629.76 439.296 655.36 398.336 655.36H284.672c-52.736 0-95.744-42.496-95.744-95.744V176.128c0-52.736 43.008-95.744 95.744-95.744h459.264c45.056 0 83.968 31.232 93.696 74.752L890.88 393.216c2.048 9.728-0.512 19.456-7.168 27.136zM328.192 169.984c-3.584-14.848-16.896-25.088-31.744-25.088h-11.776c-17.408 0-31.744 14.336-31.744 31.744V560.128c0 17.408 14.336 31.744 31.744 31.744h113.664c14.336 0.512 27.136-8.192 31.744-21.504l17.408-52.224c4.096-12.288 15.36-20.992 28.672-21.504h223.232c17.408 0 31.744-14.336 31.744-31.744v-31.744H412.16c-15.36 0.512-28.672-10.24-31.744-25.088l-52.224-238.08z m446.976 0c-3.584-14.848-16.896-25.088-31.744-25.088H387.072c1.536 3.584 3.072 7.168 3.584 11.264l47.104 211.968h382.976l-45.568-198.144z"  horiz-adv-x="1024" />
      
      <glyph glyph-name="tongdaoqudong" unicode="&#59330;" d="M999.424 246.272L881.152 808.448c-9.216 37.376-42.496 63.488-80.384 62.976H229.376c-38.912-1.024-72.704-26.112-84.992-62.976l-117.76-562.176v-262.656c0-46.592 37.888-84.992 84.48-84.992h803.328c46.592 0 84.48 37.376 84.992 83.968v263.68z m-168.96-219.648c2.048-23.552-14.848-44.032-38.4-46.08-23.552-2.048-44.032 14.848-46.08 38.4v50.176c-2.048 23.552 14.848 44.032 38.4 46.08 23.552 2.048 44.032-14.848 46.08-38.4v-50.176z m-706.56 183.808L229.376 786.944h566.784l105.472-576.512H123.904zM724.992 605.696c3.072-20.48-10.752-39.424-31.232-42.496-3.584-0.512-7.68-0.512-11.264 0H343.552c-20.48-3.072-39.424 10.752-42.496 31.232-0.512 3.584-0.512 7.68 0 11.264-3.072 20.48 10.752 39.424 31.232 42.496 3.584 0.512 7.68 0.512 11.264 0h338.432c20.48 3.072 39.424-10.752 42.496-31.232 1.024-3.584 1.024-7.168 0.512-11.264zM787.968 390.656c3.072-19.968-10.24-38.912-30.208-42.496-3.584-0.512-7.168-0.512-10.752 0H279.552c-19.968-2.56-38.912 11.776-41.472 31.744-0.512 3.584-0.512 7.168 0 10.752-3.072 19.968 10.24 38.912 30.208 42.496 3.584 0.512 7.168 0.512 10.752 0h466.944c19.968 2.56 38.912-11.776 41.472-31.744 1.024-3.584 1.024-7.168 0.512-10.752z"  horiz-adv-x="1024" />
      
      <glyph glyph-name="qushipeizhi" unicode="&#59327;" d="M890.53696 337.664v-367.104h-757.248V675.584h699.392l-64-64.512 57.856-57.856 134.144 134.144c15.872 15.872 15.872 41.984 0 57.856l-134.144 134.144-57.856-57.856 64-64h-740.352c-22.528 0-40.96-18.432-40.96-40.96v-786.432c0-22.528 18.432-40.96 40.96-40.96h839.68c22.528 0 40.96 18.432 40.96 40.96v407.552h-82.432zM458.92096 558.848h104.96v-498.688h-104.96zM668.84096 348.416h104.96v-288.768h-104.96zM248.48896 401.152h104.96v-340.992h-104.96z"  horiz-adv-x="1024" />
      
      <glyph glyph-name="qushijiankong" unicode="&#59328;" d="M128 870.4h768c56.32 0 102.4-46.08 102.4-102.4v-768c0-56.32-46.08-102.4-102.4-102.4H128c-56.32 0-102.4 46.08-102.4 102.4V768C25.6 824.32 71.68 870.4 128 870.4zM853.8112 117.31968c-16.384 0-29.696 13.312-29.696 29.696v484.352c-0.512 16.384 12.288 30.208 28.672 31.232 16.384 0.512 30.208-12.288 31.232-28.672v-486.912c-0.512-16.384-13.824-29.696-30.208-29.696zM883.5072 633.41568c0-15.36-17.92-27.648-39.936-27.648H191.7952c-22.016 0-39.936 12.288-39.936 27.648s17.92 27.648 39.936 27.648h651.776c22.016 0 39.936-12.288 39.936-27.648zM170.19392 138.61376c-16.384 0-29.696 13.312-29.696 29.696 0 7.68 3.072 15.36 8.704 20.992l226.816 229.376c11.264 11.776 30.208 11.776 41.984 0.512l101.376-97.28 129.024 128.512c11.776 11.264 30.208 11.264 41.984 0l83.456-81.408c11.776-11.264 12.288-30.208 0.512-41.984-11.264-11.776-30.208-12.288-41.984-0.512l-62.464 60.928-129.024-128.512c-11.264-11.264-30.208-11.776-41.472-0.512l-101.376 97.28-206.336-208.384c-5.632-5.632-13.312-8.704-21.504-8.704zM170.19392 340.55168c-16.384 0-29.696 13.312-29.696 29.696v261.12c0 16.384 13.312 29.696 29.696 29.696s29.696-13.312 29.696-29.696v-260.608c0-16.384-13.312-29.696-29.696-30.208zM854.12352 101.63712h-577.536c-16.384 0-29.696 13.312-29.696 29.696 0 16.384 13.312 29.696 29.696 29.696h577.024c16.384 0 29.696-13.312 29.696-29.696 0.512-16.384-12.8-29.696-29.184-29.696z"  horiz-adv-x="1024" />
      
      <glyph glyph-name="danxuankongzhi" unicode="&#59321;" d="M512 870.4C243.2 870.4 25.6 652.8 25.6 384s217.6-486.4 486.4-486.4 486.4 217.6 486.4 486.4-217.6 486.4-486.4 486.4z m0-875.52c-215.04 0-389.12 174.08-389.12 389.12s174.08 389.12 389.12 389.12 389.12-174.08 389.12-389.12-174.08-389.12-389.12-389.12zM285.184 384c0-125.44 101.376-226.816 226.816-226.816s226.816 101.376 226.816 226.816-101.376 226.816-226.816 226.816S285.184 509.44 285.184 384z"  horiz-adv-x="1024" />
      
      <glyph glyph-name="fuxuankongzhi" unicode="&#59322;" d="M887.296-102.4H136.704c-61.44 0-111.104 49.664-111.104 111.104V759.296C25.6 820.736 75.264 870.4 136.704 870.4h750.08c61.44 0 111.104-49.664 111.104-111.104v-750.08c0.512-61.952-49.152-111.616-110.592-111.616zM136.704 805.376c-25.6 0-46.592-20.992-46.592-46.592v-750.08c0-25.6 20.992-46.592 46.592-46.592h750.08c25.6 0 46.592 20.992 46.592 46.592V759.296c0 25.6-20.992 46.592-46.592 46.592H136.704zM446.976 189.44c-8.704 0-16.896 3.584-23.04 9.728l-194.56 194.56c-12.8 12.8-12.8 33.28 0 46.08s33.28 12.8 46.08 0l171.52-171.52 301.568 301.568c12.8 12.8 33.28 12.8 46.08 0s12.8-33.28 0-46.08L470.528 199.68c-6.144-7.168-14.848-10.24-23.552-10.24z"  horiz-adv-x="1024" />
      
      <glyph glyph-name="shuipingcaidan" unicode="&#59323;" d="M43.008 720.09728h348.672v-189.44h-348.672v189.44zM0 431.32928h434.176v-383.488h-434.176v383.488zM476.672 720.09728h230.912v-189.44h-230.912v189.44zM793.088 720.09728h230.912v-189.44h-230.912v189.44zM93.696 386.27328h251.392v-99.328h-251.392v99.328zM93.696 222.94528h251.392v-99.328h-251.392v99.328z"  horiz-adv-x="1024" />
      
      <glyph glyph-name="chuizhicaidan" unicode="&#59324;" d="M0.24064 747.96032h473.088v-179.712H0.24064v179.712zM566.51264 747.96032h457.216v-364.032h-457.216v364.032zM0.24064 474.04032h473.088v-179.712H0.24064v179.712zM0.24064 199.60832h473.088v-179.712H0.24064v179.712zM619.24864 705.46432h356.352v-94.208h-356.352v94.208zM619.24864 549.81632h356.352v-94.208h-356.352v94.208z"  horiz-adv-x="1024" />
      
      <glyph glyph-name="xialakongzhi" unicode="&#59325;" d="M966.144 773.12H57.856C39.936 773.12 25.6 758.784 25.6 740.864v-421.376c0-17.92 14.336-32.256 32.256-32.256h907.776c17.92 0 32.256 14.336 32.256 32.256V740.864c0.512 17.92-13.824 32.256-31.744 32.256z m-32.768-421.376H90.624V708.096h843.264l-0.512-356.352z m-32.256-104.96c-17.92 0-32.256-14.336-32.256-32.256v-154.624H155.136v154.624c0 17.92-14.336 32.256-32.256 32.256s-32.256-14.336-32.256-32.256v-187.392c0-17.92 14.336-32.256 32.256-32.256h778.24c17.92 0 32.256 14.336 32.256 32.256v187.392c0 17.92-14.336 32.256-32.256 32.256z m-212.992 179.2c12.288-12.8 32.768-13.312 45.568-0.512l0.512 0.512 124.928 127.488c12.288 12.8 12.288 33.28-0.512 46.08s-33.28 12.288-46.08-0.512L711.68 495.104 609.792 599.04c-12.288 12.8-33.28 12.8-46.08 0.512s-12.8-33.28-0.512-46.08l124.928-127.488z"  horiz-adv-x="1024" />
      
      <glyph glyph-name="neiqiancaidan" unicode="&#59326;" d="M131.072 885.9648h761.856v-208.384H131.072V885.9648zM131.072 581.3248h761.856v-698.88H131.072V581.3248zM245.248 514.2528h524.288v-125.44H245.248v125.44zM245.248 301.7728h524.288v-125.44H245.248v125.44zM245.248 86.7328h524.288v-125.44H245.248v125.44z"  horiz-adv-x="1024" />
      
      <glyph glyph-name="bianliangpiliangchuli" unicode="&#59320;" d="M379.392 354.304H107.008c-56.32 0-101.888-45.568-101.888-101.888v-272.384c0-56.32 45.568-101.888 101.888-101.888h272.384c56.32 0 101.888 45.568 101.888 101.888v272.384c0 55.808-45.568 101.376-101.888 101.888z m11.264-374.272c0-6.144-5.12-11.264-11.264-11.264H107.008c-6.144 0-11.264 5.12-11.264 11.264v272.384c0 6.144 5.12 11.264 11.264 11.264h272.384c6.144 0 11.264-5.12 11.264-11.264v-272.384z m526.336 374.272h-272.384c-56.32 0-101.888-45.568-101.888-101.888v-272.384c0-56.32 45.568-101.888 101.888-101.888h272.384c56.32 0 101.888 45.568 101.888 101.888v272.384c0 55.808-45.568 101.376-101.888 101.888z m11.264-374.272c0-6.144-5.12-11.264-11.264-11.264h-272.384c-6.144 0-11.264 5.12-11.264 11.264v272.384c0 6.144 5.12 11.264 11.264 11.264h272.384c6.144 0 11.264-5.12 11.264-11.264v-272.384zM916.992 889.856h-272.384c-56.32 0-101.888-45.568-101.888-101.888v-272.384c0-56.32 45.568-101.888 101.888-101.888h272.384c56.32 0 101.888 45.568 101.888 101.888V787.968c0 56.32-45.568 101.888-101.888 101.888z m11.264-374.272c0-6.144-5.12-11.264-11.264-11.264h-272.384c-6.144 0-11.264 5.12-11.264 11.264V787.968c0 6.144 5.12 11.264 11.264 11.264h272.384c6.144 0 11.264-5.12 11.264-11.264v-272.384zM487.424 808.96c-17.408 17.92-46.08 17.92-63.488 0.512l-0.512-0.512-218.112-218.112L84.48 711.68c-17.408 17.92-46.08 17.92-63.488 0.512L20.48 711.68l-2.048-2.048c-17.92-17.408-17.92-46.08-0.512-63.488l0.512-0.512 153.088-153.088 2.048-2.048c17.408-17.92 46.08-17.92 63.488-0.512l0.512 0.512 252.416 252.416c17.92 17.408 17.92 46.08 0.512 63.488l-0.512 0.512-2.56 2.048z"  horiz-adv-x="1024" />
      
      <glyph glyph-name="lishiku" unicode="&#59319;" d="M743.936 2.56c-152.064 0-275.456 123.392-275.456 275.968 0 152.064 123.392 275.456 275.968 275.456 152.064 0 275.456-123.392 275.456-275.968 0-73.216-29.184-142.848-80.896-194.56-51.712-52.224-121.856-81.408-195.072-80.896z m0 492.032c-119.296 0-216.064-96.768-216.064-216.576 0-119.296 96.768-216.064 216.576-216.064 119.296 0 216.064 96.768 216.064 216.064 0 119.808-97.28 216.576-216.576 216.576z m79.872-343.04c-9.216 0-18.432 3.584-25.088 10.24l-83.456 80.896c-7.168 6.656-10.752 15.872-10.752 25.6V425.984c-1.024 19.456 14.336 36.352 34.304 36.864 19.456 1.024 36.352-14.336 36.864-34.304v-144.896l72.192-70.656c14.336-13.824 14.336-36.352 0.512-50.688-6.144-6.656-15.36-10.24-24.576-10.752zM138.752 696.32H824.32c19.456-1.024 36.352 14.336 36.864 34.304s-14.336 36.352-34.304 36.864H138.752c-19.456-1.024-34.816-17.408-34.304-36.864 0.512-18.944 15.872-33.792 34.304-34.304z m349.696-596.48H77.312V527.872h481.28c121.856 88.576 289.792 76.288 397.824-29.184v29.184c0 39.424-31.744 71.168-71.168 71.168H77.312C37.888 599.04 6.144 567.296 6.144 527.872v-428.032c0-39.424 32.256-71.168 71.168-71.168h481.792c-27.136 19.456-51.2 43.52-70.656 71.168z m-224.256 214.016c0-19.456 15.872-35.84 35.84-35.84h131.584c0 24.064 2.56 48.128 8.192 71.168H300.032c-19.456 0-35.328-15.872-35.84-35.328z"  horiz-adv-x="1024" />
      
      <glyph glyph-name="xiayiceng1" unicode="&#59317;" d="M24.576 531.88096l473.088-216.576c10.24-4.608 22.016-4.608 32.256 0l473.088 216.576c19.456 8.704 28.16 31.744 19.456 51.2-4.096 8.704-10.752 15.36-19.456 19.456l-473.088 212.992c-10.24 4.608-21.504 4.608-31.744 0l-473.088-212.992c-19.456-8.704-28.16-31.744-19.456-51.2 4.096-8.704 10.752-15.36 19.456-19.456h-0.512z m489.472 235.52l445.952-200.704-445.952-204.288-445.952 204.288c0 0.512 445.952 200.704 445.952 200.704zM1003.008 248.23296l-229.888 103.424c-13.824 6.144-29.696 6.144-43.52 0l-216.064-98.816-216.064 98.816c-13.824 6.144-29.696 6.144-43.52 0l-229.888-103.424c-19.456-8.704-28.16-31.744-19.456-51.2 4.096-8.704 10.752-15.36 19.456-19.456l473.088-216.576c10.24-4.608 22.016-4.608 32.256 0l473.088 216.576c19.456 8.704 28.16 31.744 19.456 51.2-3.584 8.704-10.24 15.36-18.944 19.456z"  horiz-adv-x="1025" />
      
      <glyph glyph-name="shangyiceng1" unicode="&#59318;" d="M1001.575117 244.15744l-125.952 56.32c-12.8 5.632-27.648 0-33.28-12.288-5.632-12.8 0-27.648 12.288-33.28l103.424-46.592-445.952-204.288-445.952 204.288 102.912 46.592c12.8 5.632 18.432 20.48 12.288 33.28-5.632 12.8-20.48 18.432-33.28 12.288l-125.44-56.832c-19.456-9.216-28.16-32.256-18.944-51.712 4.096-8.192 10.752-14.848 18.944-18.944l473.6-216.576c10.24-4.608 22.016-4.608 32.256 0l473.088 216.576c19.456 9.216 28.16 32.256 18.944 51.712-4.096 8.192-10.752 14.848-18.944 18.944zM22.631117 527.80544l473.6-216.576c10.24-4.608 22.016-4.608 32.256 0l473.088 216.576c19.456 9.216 28.16 32.256 18.944 51.712-4.096 8.192-10.752 14.848-18.944 18.944l-473.088 212.992c-10.24 4.608-22.016 4.608-32.256 0l-473.088-212.992c-19.456-9.216-28.16-32.256-18.944-51.712 4.096-8.704 10.752-15.36 18.432-18.944z"  horiz-adv-x="1024" />
      
      <glyph glyph-name="yonghuxinxi" unicode="&#59316;" d="M97.28 799.744h732.16v-313.856h72.704V815.616c0 30.72-24.064 55.808-54.784 57.344H81.408c-31.232 0-56.832-25.6-56.32-57.344v-858.112c0-31.232 25.088-56.832 56.32-57.344h391.168v72.704H97.28V799.744zM257.024 582.144H716.8v-72.704H257.024V582.144z m0-193.536h348.16v-72.704h-348.16V388.608z m0-189.44h249.344v-72.704H257.024v72.704z m631.296-80.896c57.856 56.32 58.88 148.48 2.56 206.336-56.32 57.856-148.48 58.88-206.336 2.56-57.856-56.32-58.88-148.48-2.56-206.336l2.56-2.56c-68.608-23.552-113.152-89.6-109.056-161.792 0-61.44 91.648-61.44 218.112-61.44h77.312c53.76 0 90.624 3.072 112.128 24.576 10.24 10.24 16.384 24.064 15.872 38.4 5.12 73.216-40.448 139.776-110.592 160.256z m-162.304 164.864c15.872 15.872 37.888 25.088 60.416 25.088 45.568-1.024 81.92-38.912 80.384-84.48-1.024-45.568-38.912-81.92-84.48-80.384s-81.92 38.912-80.384 84.48c0.512 21.504 9.216 41.472 24.576 56.832v-1.536z m109.568-326.656h-41.472c-51.712-2.048-103.424 1.024-154.624 9.216 5.12 89.088 82.944 108.544 148.48 108.544 129.536 0 147.456-63.488 148.992-112.64-33.28-5.632-67.584-7.68-101.376-5.12z"  horiz-adv-x="1024" />
      
      <glyph glyph-name="huanyuan" unicode="&#59301;" d="M784.896 522.752H221.184l123.904 121.856-54.272 53.248-160.768-158.208-1.536 1.536-53.76-53.76 1.024-1.024-1.024-1.024 53.76-53.248 1.024 1.024 160.768-158.208 53.76 53.248-120.32 119.296h561.152c6.144 0.512 12.288 0.512 18.432 0 82.944-5.12 146.432-76.288 141.312-159.232s-76.288-146.432-159.232-141.312H49.664 46.592c-19.968-1.024-35.84-17.408-36.352-37.376-0.512-20.992 16.384-38.4 37.376-38.912 3.584 0 7.168 0.512 10.752 1.536H791.552c124.416 2.048 223.744 104.448 221.696 228.864-1.536 123.904-103.936 223.744-228.352 221.696z"  horiz-adv-x="1024" />
      
      <glyph glyph-name="xianshicankaofenxi" unicode="&#59305;" d="M577.536-52.224H10.24v87.04h131.072v174.592h87.04v-174.592h131.072v305.152h87.04v-305.152h131.072v218.112h87.04v-218.112h131.072V384h87.04v-349.184H1013.76v-87.04h-436.224zM926.72 820.224v-339.968h-82.432v194.56L524.288 384 345.6 567.808l-234.496-227.328-61.44 65.024 295.936 282.624 183.808-183.808 257.024 231.424h-192V820.224H926.72z"  horiz-adv-x="1024" />
      
      <glyph glyph-name="ziranshijian" unicode="&#59307;" d="M791.04 404.992h97.28v-54.784h-97.28V404.992z m-272.384-259.072H573.44v-97.28h-54.784v97.28z m279.04 444.928L729.088 522.24l-38.4 38.4 68.608 68.608 38.4-38.4z m-38.4-464.896L690.688 194.56l38.4 38.4 68.608-68.608-38.4-38.4z m-368.64 104.96l129.024 129.024V620.544h82.432v-293.376c-5.632-5.632-153.088-154.624-153.088-154.624l-58.368 58.368zM568.32 829.44v-78.336c202.752 0 367.104-164.352 367.104-366.592 0-202.752-164.352-367.104-366.592-367.104-183.808 0-338.944 135.68-363.52 317.952L261.12 279.552l55.296 55.296-153.088 153.088L10.24 335.36l55.296-55.296 60.416 60.416c24.064-244.736 242.176-423.424 486.912-398.848 244.736 24.064 423.424 242.176 398.848 486.912C989.184 655.36 797.184 828.928 568.32 829.44z"  horiz-adv-x="1024" />
      
      <glyph glyph-name="neizhisuofang" unicode="&#59311;" d="M615.936 279.552c17.92 17.92 46.592 17.92 64 0l243.2-242.688v146.944l0.512 8.192c4.096 24.576 27.648 40.96 52.224 36.864 21.504-3.584 37.376-23.04 37.376-45.056v-257.024c0-2.048-0.512-3.584-0.512-5.632v-1.536c-0.512-2.048-0.512-3.584-1.024-5.632l-0.512-2.048-0.512-2.048c-2.048-5.632-5.632-10.24-9.728-14.848l2.56 3.072-1.024-1.536-1.536-1.536-0.512-0.512-0.512-0.512c-6.144-5.12-13.312-9.216-20.992-10.752l-4.608-0.512-5.12-0.512h-256.512l-8.192 1.024c-21.504 4.096-36.864 22.528-37.376 44.544l0.512 8.192c4.096 21.504 22.528 37.376 44.544 37.376h146.944l-242.688 242.688-5.12 6.144c-12.8 17.408-10.752 41.984 4.608 57.344z m-207.872 0c15.36-15.36 17.92-39.936 5.12-57.856l-5.12-6.144-242.688-242.688H312.32c22.016 0 40.448-15.36 44.544-37.376l0.512-8.192c0-22.016-15.872-40.448-37.376-44.544l-8.192-1.024h-256l-5.632 0.512-4.096 1.536c-8.192 2.048-15.872 6.144-22.016 12.288l-1.536 1.536-1.024 1.536 1.024-1.536-2.56 3.072 1.024-1.536-0.512 0.512c-2.048 2.048-3.584 4.608-4.608 7.168l-1.536 3.584c-1.024 3.072-2.048 6.144-2.56 9.216l-0.512 1.536c-0.512 2.048-0.512 3.584-0.512 5.632v257.024c0 25.088 19.968 45.568 45.056 45.568 22.016 0 40.96-15.872 45.056-37.376l0.512-8.192v-146.944l243.2 242.688c17.408 17.92 46.08 17.92 63.488 0zM311.808 885.248l8.192-0.512c21.504-4.096 37.376-22.528 37.376-44.544l-1.024-8.192c-4.096-21.504-22.528-37.376-44.544-37.376H164.864l242.688-242.688 5.12-6.144c14.336-20.48 8.704-48.64-11.776-62.976-17.92-12.288-41.984-10.24-57.856 5.12L100.864 731.136v-146.944l-0.512-8.192c-4.096-24.576-27.648-40.96-52.224-36.864-22.016 4.096-37.888 23.04-37.888 45.056V841.216c0 2.048 0 4.096 0.512 5.632v1.536c0.512 2.048 1.024 3.584 1.536 5.632 2.048 7.168 6.144 13.312 11.264 18.432l-3.072-3.072-0.512-0.512 2.048 2.56-1.536-1.536 1.024 1.024 3.072 3.072c4.096 3.584 8.192 6.144 13.312 8.192l3.584 1.536C46.08 885.248 50.688 885.76 55.296 885.76h-4.608 2.56l258.56-0.512z m658.432 0h2.56c3.072-0.512 6.144-1.024 9.216-2.048l3.584-1.536 3.072-1.536 4.096-2.048c2.56-2.048 5.12-4.096 7.168-6.144l1.536-1.536 1.024-1.024 0.512-1.024 3.072-4.096c3.072-5.12 5.12-10.24 6.144-15.872v-1.536c0.512-2.048 0.512-3.584 0.512-5.632v-257.024c0-25.088-20.48-45.056-45.568-45.056-21.504 0-39.936 15.36-44.032 36.864l-0.512 8.192V731.136l-242.688-242.688c-17.92-17.408-46.592-16.896-64 1.536-14.848 15.36-16.896 38.912-5.12 56.32l5.12 6.144 242.688 242.688H711.68c-22.016 0-40.448 15.36-44.544 37.376l-1.024 8.192c0 22.016 15.36 40.448 37.376 44.544L711.68 885.76l258.56-0.512z"  horiz-adv-x="1024" />
      
      <glyph glyph-name="shijianzhouhuadong" unicode="&#59312;" d="M977.92 587.264H430.08v50.688h30.208c13.312 0 18.944 5.12 18.944 18.944v194.56c0 13.312-5.12 18.944-18.944 18.944H351.232C338.432 870.4 332.8 865.28 332.8 851.456v-194.048c0-13.312 5.12-18.944 18.944-18.944h30.208v-50.688H46.08c-19.968 0-35.84-15.872-35.84-35.84V123.392c0-19.456 15.872-35.328 35.328-35.328H381.44v-165.888c0-13.312 11.264-24.576 24.576-24.576 13.312 0 24.576 10.752 24.576 24.064v166.4h547.84c19.456 0 35.328 15.36 35.328 34.816V551.424c0 19.968-15.872 35.84-35.84 35.84zM252.928 159.232v117.76c0 13.312-11.264 24.576-24.576 24.576-13.312 0-24.576-10.752-24.576-24.064v-118.272H81.92V516.096h299.52v-356.864H252.928z m689.152 0h-154.112v117.76c0 13.312-11.264 24.576-24.576 24.576-13.312 0-24.576-10.752-24.576-24.064v-118.272h-128.512v117.76c0 13.312-11.264 24.576-24.576 24.576-13.312 0-24.576-10.752-24.576-24.064v-118.272H429.568V516.096H942.08v-356.864z"  horiz-adv-x="1024" />
      
      <glyph glyph-name="xianshibiaozhu" unicode="&#59313;" d="M482.304-64L327.68 91.136H93.696c-46.08 0-83.456 37.376-83.456 83.456l0.512 585.728c0 46.08 37.376 83.456 83.456 83.456h836.096c46.08 0 83.456-37.376 83.456-83.456l-0.512-585.216c0-46.08-37.376-83.456-83.456-83.456h-232.96l-155.648-155.136a41.8816 41.8816 0 0 0-58.88-0.512z m447.488 239.104l0.512 585.216H94.208l-0.512-585.216h250.88c11.264 0 21.504-4.608 29.696-12.288l137.728-137.728 138.24 137.728c7.68 7.68 18.432 12.288 29.696 12.288h249.856zM282.112 384c-34.816 0-62.464 28.16-62.464 62.464s28.16 62.464 62.464 62.464S344.576 481.28 344.576 446.464 316.416 384 282.112 384z m229.888 0c-34.816 0-62.464 28.16-62.464 62.464s28.16 62.464 62.464 62.464 62.464-28.16 62.464-62.464S546.816 384 512 384z m229.888 0c-34.816 0-62.464 28.16-62.464 62.464s28.16 62.464 62.464 62.464c34.816 0 62.464-28.16 62.464-62.464s-27.648-62.464-62.464-62.464z"  horiz-adv-x="1024" />
      
      <glyph glyph-name="fangdaquyu" unicode="&#59314;" d="M965.12 835.072C933.376 867.328 890.88 885.248 845.824 885.76H182.272C88.064 886.784 11.264 811.52 10.24 717.824v-663.552c-1.024-93.696 74.24-170.496 167.936-171.52h665.088c92.672 0 168.96 75.264 169.984 167.936V714.24c1.024 45.568-16.384 88.064-48.128 120.832z m-29.696-781.312c-1.024-50.688-41.984-91.648-92.672-93.184h-660.48c-51.2 1.024-91.648 41.984-93.184 92.672v660.48c1.024 51.2 41.984 91.648 92.672 93.184h660.48c51.2-1.024 91.648-41.984 93.184-92.672v-660.48zM840.192 741.888h-198.144c-17.92 0-32.768-14.336-32.768-32.768 0-17.92 14.336-32.768 32.768-32.768h116.736l-188.928-188.928c-12.288-12.8-11.264-33.28 1.536-45.568 12.288-11.776 31.744-11.776 44.032 0l188.928 188.928v-117.248c0-17.92 14.336-32.768 32.768-32.768 17.92 0 32.768 14.336 32.768 32.768V709.632c0.512 16.896-12.288 31.232-29.696 32.256zM409.6 326.656l-1.536-1.536-188.928-188.928v117.248c0 17.92-14.336 32.768-32.768 32.768s-32.768-14.336-32.768-32.768v-195.072c-1.024-16.896 12.288-31.744 29.184-32.768h198.144c17.92 0 32.768 14.336 32.768 32.768 0 17.92-14.336 32.768-32.768 32.768H264.704l188.928 188.928c12.8 12.288 13.824 32.768 1.536 45.568-12.288 12.8-32.768 13.312-45.568 1.024z"  horiz-adv-x="1024" />
      
      <glyph glyph-name="zhongfuzhoufanwei" unicode="&#59315;" d="M876.032 292.864c-64 0.512-116.224-51.712-116.736-115.712-0.512-64 51.712-116.224 115.712-116.736 64-0.512 116.224 51.712 116.736 115.712v0.512c0 64-51.712 116.224-115.712 116.224zM511.488 652.288c64.512-0.512 117.248 51.2 117.76 115.712 0.512 64.512-51.2 117.248-115.712 117.76-64.512 0.512-117.248-51.2-117.76-115.712v-1.536c0.512-64 51.712-115.712 115.712-116.224z m386.56-288.768c25.088-3.072 49.664-11.264 71.68-24.576v5.12c-0.512 181.76-107.52 346.112-273.408 420.352-0.512-25.088-5.632-49.152-15.872-72.192 126.976-61.44 210.432-187.392 217.6-328.704zM264.704 178.176c0 64-52.224 116.224-116.224 116.224S32.256 242.176 32.256 178.176s52.224-116.224 116.224-116.224c30.72 0 59.904 12.288 81.92 33.792 22.016 21.504 34.304 51.2 34.304 82.432zM125.44 363.52C132.608 504.32 215.04 630.272 340.992 692.736c-10.24 22.528-15.872 47.104-15.872 71.68-165.888-74.24-272.896-238.592-273.408-420.352 1.024-2.048 2.56-4.096 4.096-5.632 20.992 12.8 45.056 21.504 69.632 25.088z m386.048-410.112c-87.04 0-171.008 29.696-239.104 83.456-18.944-16.896-41.472-29.696-65.536-37.888 173.056-156.16 436.224-156.16 609.792 0-24.064 8.192-46.592 20.992-65.536 37.888A386.3296 386.3296 0 0 0 512-46.08l-0.512-0.512z"  horiz-adv-x="1024" />
      
      <glyph glyph-name="chuankoufujiedian" unicode="&#59300;" d="M822.784 694.784H424.96v-265.216h397.824V694.784zM734.72 517.12h-221.184V606.208h221.184V517.12zM27.136 871.936v-972.8h972.8V871.936H27.136z m884.224-885.76H115.712V782.848H911.36v-796.672zM573.952 324.608H452.608v-182.272h121.856v182.272h-0.512zM330.752 142.336h0.512v182.272H209.408v-182.272h121.344zM330.752 507.392h0.512V689.664H209.408V506.88h121.344zM817.152 324.608h-121.344v-182.272h121.856v182.272h-0.512z"  horiz-adv-x="1024" />
      
      <glyph glyph-name="IOyingshebianliang" unicode="&#59303;" d="M824.832 870.4C920.576 870.4 998.4 792.576 998.4 696.832V71.68c0-95.744-77.824-173.568-173.568-173.568H199.168C103.424-102.4 25.6-24.576 25.6 71.168V696.832C25.6 792.576 103.424 870.4 199.168 870.4h625.664z m0-69.632H199.168c-57.344 0-104.448-46.592-104.448-104.448v-625.152c0-57.344 46.592-104.448 104.448-104.448H824.32c57.344 0 104.448 46.592 104.448 104.448V696.832c0 57.344-46.592 103.936-103.936 103.936zM303.616 662.016c18.944 0 34.816-15.36 34.816-34.816v-486.4c0-18.944-15.36-34.816-34.816-34.816-18.944 0-34.816 15.36-34.816 34.816v486.4c0 18.944 15.36 34.816 34.816 34.816z m278.016 0c18.944 0 34.816-15.36 34.816-34.816v-486.4c0-18.944-15.36-34.816-34.816-34.816-18.944 0-34.816 15.36-34.816 34.816v486.4c0 18.944 15.36 34.816 34.816 34.816zM442.368 522.752c18.944 0 34.816-15.36 34.816-34.816v-208.384c0-18.944-15.36-34.816-34.816-34.816-18.944 0-34.816 15.36-34.816 34.816V488.448c0 18.944 15.872 34.304 34.816 34.304z m278.016 0c18.944 0 34.816-15.36 34.816-34.816v-208.384c0-18.944-15.36-34.816-34.816-34.816-18.944 0-34.816 15.36-34.816 34.816V488.448c0 18.944 15.36 34.304 34.816 34.304z"  horiz-adv-x="1024" />
      
      <glyph glyph-name="neibubianliang" unicode="&#59304;" d="M998.4-102.4H25.6V870.4h972.8v-972.8zM116.736-11.264h790.528V779.264H116.736v-790.528zM269.00992 223.53408c0-39.424 32.256-71.168 71.168-71.168 26.624 0 50.688 14.848 62.976 37.888h206.848c18.432-34.816 61.44-48.128 96.256-29.696 34.816 18.432 48.128 61.44 29.696 96.256-18.432 34.816-61.44 48.128-96.256 29.696-12.8-6.656-23.04-16.896-29.696-29.696h-188.928l230.912 230.912c6.656-2.048 13.824-3.072 20.992-3.584 39.424 0 71.168 31.744 71.168 71.168s-31.744 71.168-71.168 71.168-71.168-31.744-71.168-71.168c0-7.168 1.024-14.336 3.584-20.992l-231.936-230.4v188.928c34.816 18.432 48.128 61.44 29.696 96.256-18.432 34.816-61.44 48.128-96.256 29.696-34.816-18.432-48.128-61.44-29.696-96.256 6.656-12.8 16.896-23.04 29.696-29.696v-206.848c-23.552-11.776-37.888-35.84-37.888-62.464z"  horiz-adv-x="1024" />
      
      <glyph glyph-name="luojibianliang" unicode="&#59306;" d="M347.648 623.104h328.704c25.088 1.024 44.544 22.016 43.52 47.104-1.024 23.552-19.968 43.008-43.52 43.52H347.648c-25.088-1.024-44.544-22.016-43.52-47.104 0.512-23.552 19.456-42.496 43.52-43.52zM856.576 486.912c71.68 0 130.048 57.856 130.048 129.536V740.352c0 71.68-57.856 130.048-129.536 130.048H166.912C95.232 870.4 36.864 812.032 36.864 740.352v-123.392c0-71.68 57.856-130.048 129.536-130.048h162.816v-102.4c-1.024-26.112 19.456-48.128 45.568-49.152h228.864v-53.248H166.912c-71.68 0-130.048-57.856-130.048-129.536v-123.392c0-71.68 57.856-130.048 129.536-130.048h690.176c71.68 0 130.048 57.856 130.048 129.536v123.392c0 71.68-57.856 130.048-129.536 130.048h-162.816v102.4c1.024 26.112-19.456 48.128-45.568 49.152H420.352V486.912h436.224z m44.544-458.24c0-24.576-19.968-45.056-45.056-45.056H166.912c-24.576 0-45.056 19.968-45.056 44.544v123.392c0 24.576 19.968 45.056 44.544 45.056h690.176c24.576 0 45.056-19.968 45.056-44.544l-0.512-123.392zM121.856 739.84c0 24.576 19.968 45.056 44.544 45.056h690.176c24.576 0 45.056-19.968 45.056-44.544v-123.392c0-24.576-19.968-45.056-44.544-45.056H166.912c-24.576 0-45.056 19.968-45.056 44.544V739.84zM675.84 126.464H347.648c-25.088-1.024-44.544-22.016-43.52-47.104 1.024-23.552 19.968-43.008 43.52-43.52h328.704c25.088-0.512 46.08 18.944 46.592 44.032 0.512 25.088-18.944 46.08-44.032 46.592h-3.072z"  horiz-adv-x="1024" />
      
      <glyph glyph-name="xitongbianliang" unicode="&#59308;" d="M887.296 670.72L571.392 852.992c-37.376 21.504-82.944 21.504-120.32 0L135.168 670.72c-37.376-21.504-60.416-61.44-60.416-104.448v-365.056c0-43.008 23.04-82.432 59.904-103.936L450.56-84.992c37.376-21.504 82.944-21.504 120.32 0l315.904 182.272c37.376 21.504 59.904 60.928 59.904 103.936V566.272c0.512 43.008-22.016 82.944-59.392 104.448z m-4.608-461.824c0-20.48-10.752-39.424-28.672-49.664l-313.856-183.296c-17.92-10.752-40.448-10.752-58.368 0L167.936 158.72c-17.92 10.24-28.672 29.184-28.672 49.664V551.936c0 31.744 25.6 57.856 57.344 57.856 10.24 0 20.48-2.56 29.184-7.68l222.208-129.536c38.912-22.528 87.04-22.528 125.952 0l222.208 129.536c27.648 15.872 62.976 6.656 78.848-20.992 5.12-8.704 7.68-18.944 7.68-29.184v-343.04zM511.69792 262.0416c-29.696 0-58.368 8.192-83.968 23.04l-189.952 111.104c-19.968 11.776-26.624 37.376-14.848 56.832s37.376 26.624 56.832 14.848l189.952-111.104c26.112-15.36 57.856-15.36 83.968 0l86.016 50.176c20.48 10.752 45.568 3.072 56.32-17.408 10.24-19.456 4.096-43.008-14.336-54.784l-86.016-50.176c-25.6-14.336-54.272-22.016-83.968-22.528z m239.616 121.344c-23.04 0-41.984 18.432-41.984 41.472 0 14.336 7.168 27.648 19.456 35.328l11.776 7.68c19.456 12.288 45.056 6.144 57.344-13.312 12.288-19.456 6.144-45.056-13.312-57.344l-11.776-7.68c-5.632-4.096-13.312-6.656-21.504-6.144z m-239.616-312.832c-29.184 0-57.344 7.68-82.432 22.016l-191.488 111.616c-19.456 12.288-25.088 37.888-12.8 57.856 11.776 18.432 35.84 25.088 54.784 14.336l191.488-112.128c25.088-14.848 55.808-14.848 80.896 0 16.384 9.728 58.368 36.352 58.88 36.352 19.456 12.288 45.056 6.656 57.344-12.8 12.288-19.456 6.656-45.056-12.8-57.344-1.536-1.024-43.52-27.648-61.44-37.888-25.088-14.336-53.76-22.016-82.432-22.016z m212.992 107.008c-23.04 0-41.984 18.432-41.984 40.96 0 14.848 7.68 28.672 20.48 36.352l39.936 24.064c19.968 11.776 45.568 5.632 57.344-14.336 11.776-19.968 5.632-45.568-14.336-57.344l-39.936-24.064c-6.656-3.584-13.824-5.632-21.504-5.632z"  horiz-adv-x="1024" />
      
      </font>
</defs>
</svg>
